<?xml version="1.0" standalone="no"?>
<!DOCTYPE svg PUBLIC "-//W3C//DTD SVG 1.1//EN" "http://www.w3.org/Graphics/SVG/1.1/DTD/svg11.dtd" >
<svg xmlns="http://www.w3.org/2000/svg">
<metadata>
This is a custom SVG webfont generated by Font Squirrel.
Copyright   :  1996 2001 Adobe Systems Incorporated All Rights Reserved
Designer    : Robert Slimbach
Foundry URL : httpwwwadobecomtype
</metadata>
<defs>
<font id="CronosProLightItalic" horiz-adv-x="858" >
<font-face units-per-em="2048" ascent="1597" descent="-451" />
<missing-glyph horiz-adv-x="440" />
<glyph unicode=" "  horiz-adv-x="440" />
<glyph unicode="&#x09;" horiz-adv-x="440" />
<glyph unicode="&#xa0;" horiz-adv-x="440" />
<glyph unicode="!" horiz-adv-x="317" d="M35 49q0 43 22.5 69.5t63.5 26.5h2q31 0 49 -22.5t18 -54.5q0 -41 -22.5 -66t-58.5 -25q-33 0 -53.5 19.5t-20.5 52.5zM115 377q2 35 19 205l38 364q20 195 27 248q6 18 38.5 33.5t53.5 15.5h2q16 0 16 -28q0 -8 -2 -19q-113 -729 -114 -747q-6 -41 -29 -56 q-29 -16 -49 -16z" />
<glyph unicode="&#x22;" horiz-adv-x="487" d="M109 920q31 117 69 380q2 14 31 27.5t47 13.5h2q16 0 16 -31q0 -18 -6 -46q-43 -211 -90 -308q-38 -32 -69 -36zM350 920q35 141 70 380q2 14 29.5 27.5t48.5 13.5h2q16 0 15 -31q0 -18 -5 -46q-47 -213 -90 -308q-37 -32 -70 -36z" />
<glyph unicode="#" d="M33 457q0 3 2 6q6 29 31 59h145l84 303h-141q-16 0 -22.5 5.5t-2.5 17.5q18 39 33 55h155l76 260q4 6 26.5 14.5t37.5 8.5q16 0 8 -31l-70 -252h203l70 260q4 4 28.5 13.5t40.5 9.5q12 0 4 -31l-69 -252h131q16 0 18 -5q1 -3 1 -8.5t-1 -15.5q-6 -14 -35 -51h-137 l-78 -301h144q25 0 18 -24q-16 -41 -33 -54h-153l-80 -317q-25 -25 -70 -25q-10 0 -2 31l78 311h-209l-84 -317q-6 -25 -26 -25q-33 0 -45 37l81 305h-131q-12 0 -18 3q-8 4 -8 10zM287 522h211l80 303h-207z" />
<glyph unicode="$" d="M33 137q6 27 24.5 41.5t42.5 -0.5q120 -101 256 -100h11q258 0 258 223q0 37 -14.5 72t-30 56.5t-56.5 53t-60 43.5l-75 49q-104 66 -161.5 134.5t-57.5 171.5q0 106 77 194t238 99l25 135q6 20 33 28q33 8 55 9l-33 -175q63 -6 128 -40.5t91 -67.5q-14 -48 -42 -48 q-14 0 -31 11q-102 74 -203 74q-115 0 -179.5 -56.5t-64.5 -156.5q0 -43 14.5 -78t48 -67.5t62.5 -53l88 -59.5q131 -86 187.5 -153.5t56.5 -160.5q0 -141 -90 -222t-248 -91l-29 -145q-6 -25 -11 -32t-17 -11q-20 -4 -40 -5q-6 0 -11 -1q-9 0 -11 2l41 194q-72 8 -137.5 37 t-98 55.5t-36.5 40.5z" />
<glyph unicode="%" horiz-adv-x="1404" d="M109 827q0 162 87 284t228 122q61 0 131 -41q92 -52 224 -52q14 0 29 1q151 6 241 57q61 33 110 92l43 53q10 11 19 11.5t16 -11.5q23 -37 20 -65q-68 -86 -466 -631l-541 -731q-7 -12 -14 -12t-13 12q-10 16 -22 59l839 1151q-72 -39 -161 -51q-60 -8 -110 -8 q-25 0 -47 2q-67 6 -116 23q20 -55 21 -146q0 -160 -87 -275.5t-221 -115.5q-106 0 -158 79.5t-52 192.5zM226 682q32 -57 104 -57q82 0 146.5 84t64.5 245q0 209 -131 209h-2q-92 0 -154 -100q-59 -97 -60 -237q0 -87 32 -144zM788 256q0 160 84 278.5t226 118.5h2 q109 0 159 -84t50 -198q0 -164 -83 -280t-222 -116q-109 0 -162.5 82t-53.5 199zM874 242q0 -80 34 -138.5t112 -58.5q80 0 141.5 88t61.5 248q0 203 -140 203h-2q-88 0 -147.5 -99.5t-59.5 -242.5z" />
<glyph unicode="&#x26;" horiz-adv-x="1220" d="M47 283q0 88 43 159.5t97.5 115.5t144.5 104q18 10 26 16q-106 131 -106 270q0 131 81 220t212 89q104 0 171.5 -68.5t67.5 -172.5q0 -33 -8 -63.5t-17 -53t-33 -49.5l-36 -41q-12 -14 -47 -40t-48 -34l-55 -35l-53 -32q164 -195 279 -318q227 354 285 422q55 68 77 68 q31 0 56 -52v-4q-59 -49 -137 -156.5t-228 -332.5q244 -270 260 -291v-6q-57 -31 -79.5 -31t-61.5 45l-176 203q-115 -147 -208 -193.5t-192 -46.5q-137 0 -226 85.5t-89 222.5zM152 307q0 -109 65.5 -176.5t163.5 -67.5h2q172 0 330 205l-314 357q-84 -57 -126 -91 t-81.5 -95.5t-39.5 -131.5zM342 958q0 -127 104 -237q139 88 183 139q61 70 61 152q0 74 -43 123t-112 49q-88 0 -140.5 -65.5t-52.5 -157.5v-3z" />
<glyph unicode="'" horiz-adv-x="245" d="M109 920q39 150 69 387q8 10 36 22t48 12h2q12 0 12 -26q0 -19 -6 -51q-41 -197 -92 -308q-38 -32 -69 -36z" />
<glyph unicode="(" horiz-adv-x="577" d="M68 424v2q0 317 138 585.5t378 422.5q14 -6 24 -31t2 -35q-451 -362 -450 -944q0 -477 254 -752q-2 -16 -17.5 -31.5t-27.5 -17.5q-150 102 -225.5 337t-75.5 464z" />
<glyph unicode=")" horiz-adv-x="577" d="M-43 -307q451 360 451 930q0 487 -252 761q2 16 16 32t25 18q156 -117 229.5 -350.5t73.5 -462.5v-3q0 -645 -520 -995q-14 6 -23 32q-4 13 -4 22.5t4 15.5z" />
<glyph unicode="*" horiz-adv-x="641" d="M106 1001q-1 5 -1 9q0 17 22 24l203 53l-164 130q-29 23 -14 43q14 18 41 38l174 -178l32 240q18 0 47 -6q35 -10 25 -41l-53 -199l207 88q23 -23 24 -43l2 -10q0 -24 -35 -33l-182 -49l178 -135q31 -23 11 -47q-16 -23 -45 -33l-177 178l-34 -235q-23 0 -60 14 q-12 5 -12 24q0 14 6 35l47 176l-219 -96q-11 12 -23 53z" />
<glyph unicode="+" horiz-adv-x="1157" d="M127 469q4 82 63 82h340v225q0 109 -6 164l49 8q8 2 15 2q17 0 25 -12q11 -16 12 -59v-328h401q-10 -82 -65 -82h-336v-385q0 -43 -58 -57l-37 -4v446h-403z" />
<glyph unicode="," horiz-adv-x="303" d="M-102 -207q74 74 117 182q32 79 32 151q0 27 -4 52q41 41 84 41h2q35 0 35 -98q0 -74 -52.5 -173.5t-113.5 -135.5q-36 -19 -83 -19q-8 -1 -17 0z" />
<glyph unicode="-" horiz-adv-x="516" d="M29 410q23 76 55 84q315 41 369 55l2 -4q-6 -31 -33 -60.5t-72 -40.5q-156 -37 -317 -41z" />
<glyph unicode="." horiz-adv-x="303" d="M14 51q0 43 22.5 69.5t65.5 26.5h2q31 0 49.5 -22.5t18.5 -54.5q0 -41 -22.5 -67t-59.5 -26q-76 0 -76 74z" />
<glyph unicode="/" horiz-adv-x="634" d="M-20 -195l563 1446q20 57 55 60l57 2l-551 -1432q-18 -47 -31.5 -61.5t-37.5 -14.5h-55z" />
<glyph unicode="0" d="M55 461q0 119 24.5 246t74 248.5t139.5 199.5t205 78h2q94 0 159.5 -44t97 -119t45 -150.5t13.5 -163.5q0 -135 -24.5 -265.5t-73.5 -249t-139.5 -192.5t-206.5 -74q-92 0 -158 45.5t-98.5 122t-46 154.5t-13.5 164zM156 463q0 -66 9 -128.5t30.5 -131t68.5 -110.5 t115 -42q86 0 151.5 63.5t103.5 168t56.5 225.5t18.5 250q0 399 -211 399h-2q-106 0 -186.5 -106.5t-117 -261t-36.5 -326.5z" />
<glyph unicode="1" d="M188 983q10 37 41 82q254 92 400 168l16 -10l-160 -1174q-4 -31 -10 -40t-22 -13q-6 0 -22.5 -3t-32 -4t-27.5 -1q53 352 157 1110q-66 -29 -180.5 -69t-157.5 -50z" />
<glyph unicode="2" d="M31 14l16 29q10 18 16 27q352 344 472 515t120 330q0 106 -55 169t-158 63q-162 0 -295 -164h-4q-8 21 -7 41q0 43 36 82q51 53 130 89t163 36q137 0 216 -88t79 -228q0 -172 -123 -337q-125 -170 -461 -502q123 -7 257 -7q153 0 321 9q0 -14 -17.5 -40t-36.5 -32 q-47 -16 -184 -16q-379 0 -481 12z" />
<glyph unicode="3" d="M20 115l5 2q139 -98 290 -99q150 0 237 80t87 221q0 123 -85 195t-222 72q-43 0 -84 -8v4q2 14 24.5 41.5t32.5 31.5q145 20 236.5 98t91.5 205q0 84 -51.5 139.5t-135.5 55.5q-143 0 -278 -129q0 2 -4 2q-3 13 -3 26q0 39 29 68q39 41 115 77t156 36q123 0 199.5 -74 t76.5 -192q0 -115 -70.5 -200t-181.5 -124q260 -72 260 -313q0 -184 -122.5 -287.5t-311.5 -103.5q-88 0 -160.5 23.5t-103.5 51.5q-16 16 -23 47q-5 20 -5 36q0 10 1 18z" />
<glyph unicode="4" d="M-2 432q90 137 324.5 424t330.5 361q86 63 178 73l3 -6q-358 -330 -717 -835q180 -23 450 -23l68 412q23 8 86 18l6 -2l-63 -428q70 0 151 8v-4q-18 -49 -70 -72q-23 -8 -94 -12q-8 -70 -41 -297q-6 -45 -30 -53q-41 -8 -82 -8q25 129 57 358q-369 4 -516 31 q-33 20 -41 55z" />
<glyph unicode="5" d="M33 84q4 0 4 2q39 -27 110.5 -47.5t139.5 -20.5q166 0 254 84t88 232q0 109 -83 174t-247 108q-41 10 -97.5 21.5t-76.5 17.5l-10 29q141 481 153 516q82 2 277.5 16.5t208.5 14.5l4 -2q-4 -37 -23 -60q-16 -25 -61 -30q-59 -6 -196.5 -14.5t-145.5 -8.5 q-74 -211 -117 -387q238 -53 338 -106q182 -98 182 -289q-2 -182 -128 -288.5t-318 -106.5q-150 0 -230 53q-12 10 -20 38.5t-6 53.5z" />
<glyph unicode="6" d="M35 422q0 326 211 565q80 92 172 156.5t169 90.5t123 36t72 10q53 0 82 -47l-2 -4q-330 -55 -516 -260q-100 -113 -153.5 -257.5t-53.5 -287.5q0 -94 21.5 -173t84 -139.5t156.5 -60.5q125 0 202 97.5t77 236.5q0 111 -50 184.5t-155 73.5q-117 0 -225 -88l-6 4 q-1 7 -1 13q0 43 36 73q98 82 225 82q135 0 208.5 -97.5t73.5 -236.5q0 -184 -113.5 -301t-275.5 -117q-188 0 -275 124t-87 323z" />
<glyph unicode="7" d="M82 -20q193 203 387.5 526t286.5 614h-523q-96 0 -96 23q0 35 58 74q33 -8 194 -9h471q0 -57 -43 -186q-84 -246 -264 -546t-293 -427q-68 -80 -123 -84q-31 0 -55 8v7z" />
<glyph unicode="8" d="M39 270q0 35 8 67t17.5 55.5t33.5 50.5l37 41q12 13 49 40l47 34q10 7 54.5 33.5t50.5 31.5q-88 70 -133 135t-45 160q0 129 92 222t237 93h2q119 0 204 -78t85 -194q0 -66 -19.5 -117t-68.5 -97.5t-76.5 -65.5l-101.5 -67q147 -98 196.5 -172.5t49.5 -150.5 q0 -125 -96.5 -220.5t-280.5 -95.5q-168 0 -255 92t-87 203zM143 279q0 -96 73 -162t179 -66h2q119 0 188.5 64.5t69.5 167.5q0 76 -61.5 140t-194.5 155q-143 -80 -199.5 -144.5t-56.5 -154.5zM252 936q0 -78 46 -140.5t155 -140.5q125 78 176 140.5t51 162.5 q0 82 -58.5 140.5t-138.5 58.5h-2q-106 0 -167.5 -69.5t-61.5 -151.5z" />
<glyph unicode="9" d="M61 -12q211 41 385 194q258 221 259 615q0 152 -62.5 256t-187.5 104q-111 0 -183.5 -91t-72.5 -220q0 -125 66.5 -194.5t164.5 -69.5q96 0 186 51l5 -4q0 -49 -31 -76q-20 -18 -79.5 -36.5t-111.5 -18.5q-139 0 -221 93t-82 238q0 170 107.5 287t261.5 117 q119 0 199.5 -68.5t113.5 -165t33 -208.5q0 -139 -40 -273.5t-146.5 -271.5t-268.5 -230q-147 -80 -223 -79q-52 0 -72 51z" />
<glyph unicode=":" horiz-adv-x="303" d="M12 49q0 43 23.5 70.5t64.5 27.5h2q31 0 49.5 -22.5t18.5 -54.5q0 -41 -22.5 -67t-59.5 -26q-33 0 -54.5 18.5t-21.5 53.5zM100 754q0 43 22.5 69.5t63.5 26.5h2q33 0 51.5 -23.5t18.5 -56.5q0 -39 -23.5 -64.5t-60.5 -25.5q-74 0 -74 74z" />
<glyph unicode=";" horiz-adv-x="303" d="M-102 -207q74 72 117 181q32 80 32 152q0 27 -4 52q41 41 86 41h2q33 0 33 -100q0 -72 -52.5 -171.5t-113.5 -135.5q-29 -20 -76 -20q-11 0 -24 1zM94 754q0 43 22.5 69.5t63.5 26.5h2q33 0 51.5 -22.5t18.5 -55.5q0 -41 -22.5 -66.5t-59.5 -25.5q-33 0 -54.5 19.5 t-21.5 54.5z" />
<glyph unicode="&#x3c;" horiz-adv-x="1157" d="M166 461q0 27 22 49l650 424q11 8 21 8q15 0 28 -18q16 -31 20 -56l-612 -391v-6l612 -383q0 -35 -20 -61q-12 -17 -27 -17q-11 0 -22 8l-645 414q-27 19 -27 29z" />
<glyph unicode="=" horiz-adv-x="1157" d="M125 659q4 82 63 82h838q-2 -47 -15.5 -64.5t-49.5 -17.5h-836zM125 266q4 82 63 82h838q-2 -47 -15.5 -64.5t-49.5 -17.5h-836z" />
<glyph unicode="&#x3e;" horiz-adv-x="1157" d="M229 870q0 31 21 62q12 18 28 18q12 0 25 -10l641 -412q27 -16 27 -28q0 -35 -23 -51l-647 -424q-13 -9 -24 -10q-16 0 -27 20q-8 14 -21 55l613 391v6z" />
<glyph unicode="?" horiz-adv-x="579" d="M115 575q0 72 48 131q50 60 161 128q172 104 172 204q0 51 -37 87t-109 36q-80 0 -168 -59q-27 -23 -43 6q-10 18 -6 41q106 94 238 94h2q96 0 160.5 -56.5t64.5 -144.5q0 -84 -54.5 -145t-162.5 -131l-67 -44q-19 -13 -50 -40t-42 -53.5t-11 -59.5q2 -57 52 -95 q48 -36 135 -36h10q2 0 6 -1t6 -1q2 -41 -20.5 -54t-65.5 -13q-78 0 -148 52q-71 53 -71 154zM162 51q0 41 23.5 67.5t58.5 26.5h2q74 0 73 -79q0 -37 -23.5 -63t-55.5 -26q-35 0 -56.5 21.5t-21.5 52.5z" />
<glyph unicode="@" horiz-adv-x="1431" d="M76 309q0 324 204.5 547t538.5 223q242 0 391.5 -146.5t149.5 -385.5q0 -203 -98.5 -347.5t-268.5 -144.5q-29 0 -53.5 9.5t-50 33t-36.5 75.5q-6 27 -6 61q0 31 5 67q-61 -119 -149.5 -182.5t-161.5 -63.5q-70 0 -105 63.5t-35 143.5q0 205 116 356.5t312 151.5 q55 0 175 -29q-47 -193 -70 -387q-6 -48 -6 -85q0 -53 12 -85q20 -53 80 -53q125 0 189.5 113.5t64.5 277.5q0 211 -122 346.5t-331 135.5q-297 0 -472 -196t-175 -486q0 -238 129 -383.5t367 -145.5q174 0 325 90l4 -2q3 -12 3 -23q0 -36 -31 -57q-129 -86 -353 -86 q-250 0 -396 170t-146 424zM494 285q0 -147 79 -148q84 0 177.5 115t136.5 323q14 82 20 111q-29 14 -90 14h-2q-156 0 -238.5 -125.5t-82.5 -289.5z" />
<glyph unicode="A" horiz-adv-x="1198" d="M-31 12q573 1036 656 1200l-15 43q20 31 72 31q18 0 27 -26l258 -852q94 -315 129 -398v-4q-59 -18 -86 -18q-12 0 -20.5 10t-18.5 43l-133 426h-521l-245 -457q-12 -23 -33 -22q-23 0 -68 20zM360 547h459l-67 231l-60 206l-37 126z" />
<glyph unicode="B" horiz-adv-x="976" d="M92 31l54 340l53 324q20 128 30 210l28 178q15 96 17 115q-16 -2 -32 -5l-33 -6q-16 -3 -23 -5v2q8 51 35 69q94 37 266 37q180 0 273.5 -77.5t93.5 -219.5q0 -223 -242 -317q256 -70 256 -299q0 -197 -143 -297t-334 -100q-147 0 -299 51zM213 86q59 -31 180 -31 q160 0 262.5 82t102.5 228v2q0 129 -94.5 196.5t-241.5 69.5h-27q-53 0 -102 -6q-12 -92 -42 -286t-38 -255zM303 700q111 0 146 5q295 27 294 278v2q0 70 -27.5 119t-72.5 70.5t-84 29.5t-80 8q-84 0 -102 -4z" />
<glyph unicode="C" horiz-adv-x="1067" d="M86 549q0 102 26.5 205.5t86 204t143.5 178t208 126t269 48.5q188 0 266 -72q-8 -59 -40 -59q-10 0 -23 6q-96 43 -211 43q-266 0 -437 -193.5t-171 -484.5q0 -217 114.5 -357.5t329.5 -140.5q197 0 324 82l4 -2q-4 -59 -33 -90q-121 -74 -323 -74q-256 0 -394.5 161 t-138.5 419z" />
<glyph unicode="D" horiz-adv-x="1236" d="M96 33l129 839l47 324q-14 -2 -37.5 -5t-37.5 -7l-2 2q4 39 28 71q117 33 289 33q322 0 488 -147q165 -146 165 -449q0 -223 -101 -390q-99 -163 -262 -243.5t-366 -80.5q-160 0 -340 53zM215 86q96 -31 221 -31t233.5 38t195.5 112t137.5 195.5t50.5 277.5 q0 537 -561 536q-59 0 -115 -6q-29 -188 -81 -561t-81 -561z" />
<glyph unicode="E" horiz-adv-x="845" d="M94 43l137 948q14 104 33 262q37 20 88 27h455q0 -45 -29 -61q-29 -18 -129 -19h-287l-69 -502h455q-12 -51 -38 -65.5t-98 -14.5h-333l-72 -532q53 -18 252 -18q223 0 307 12l2 -4q-4 -23 -24.5 -48.5t-49.5 -31.5q-47 -8 -215 -8q-248 0 -360 22z" />
<glyph unicode="F" horiz-adv-x="802" d="M90 23l146 1009q6 35 26 228q27 10 82 20h514q-4 -41 -31 -61q-29 -18 -131 -19h-338l-71 -549h473q-16 -53 -40 -66.5t-79 -13.5h-369q-45 -352 -77 -573q-20 -10 -78 -10q-18 0 -24 7q-4 5 -3 17q-1 5 0 11z" />
<glyph unicode="G" horiz-adv-x="1216" d="M86 584q0 94 24.5 191t82 194.5t138.5 172.5t203.5 122t270.5 47h2q104 0 194.5 -28t135.5 -64q-10 -57 -50 -58q-17 0 -38 10q-111 55 -248 56q-272 0 -435 -186.5t-163 -450.5q0 -262 140 -403.5t402 -141.5q111 0 168 23q63 383 72 530q59 18 84 18q27 0 23 -30 q-6 -55 -34 -245.5t-44 -328.5q-172 -43 -309 -43q-291 0 -455 160t-164 455z" />
<glyph unicode="H" horiz-adv-x="1208" d="M84 -12q43 266 149 1018q31 229 31 268q16 2 34.5 5l30 5t23.5 2q8 0 11.5 -4t5.5 -16.5t0 -36t-9 -60.5l-65 -469h676l78 525q8 55 36 59q29 2 78 2l-151 -1032q-23 -141 -33 -254q-35 -12 -88 -12q-27 0 -21 37l88 600q-49 -4 -325 -4h-348l-80 -572q-8 -53 -35 -57 q-59 -4 -86 -4z" />
<glyph unicode="I" horiz-adv-x="425" d="M90 25l141 981q12 90 33 266q43 14 86 14q8 0 12.5 -3t5.5 -15.5t-1 -35t-9 -63.5l-131 -915q-27 -180 -32 -254q-35 -12 -82 -12q-29 0 -23 37z" />
<glyph unicode="J" horiz-adv-x="430" d="M-195 -236l5 7q152 8 216 102t103 377q47 324 94 713q27 233 33 311q61 12 88 12q14 0 17.5 -11t-1.5 -54q-12 -102 -135 -1035q-14 -113 -41.5 -199.5t-63.5 -137t-69 -83t-72.5 -45t-61 -15.5t-48.5 -3q-23 0 -41.5 20.5t-22.5 40.5z" />
<glyph unicode="K" horiz-adv-x="1105" d="M90 25l139 944q12 76 43 305q41 12 80 12q18 0 18.5 -22.5t-5.5 -55.5l-82 -557l747 649q29 4 70 -10q33 -10 6 -35l-700 -602q10 -12 66 -75l92 -104l98 -108l107 -117l97 -102q51 -53 91 -88.5t67 -54.5l-2 -8q-33 -12 -86 -12q-49 0 -141 96q-51 51 -166 178l-225 251 l-121 136l-86 -645q-43 -12 -91 -12q-22 0 -16 37z" />
<glyph unicode="L" horiz-adv-x="833" d="M96 41l133 965q31 229 31 268q66 12 90 12q6 0 8 -3t3 -16.5t-1 -36t-8 -63.5l-143 -1081q53 -18 250 -18q223 0 286 12l3 -4q-6 -23 -27 -48.5t-47 -31.5q-47 -8 -205 -8q-242 0 -348 20q-17 17 -25 33z" />
<glyph unicode="M" horiz-adv-x="1624" d="M39 0l159 572l181 657l-10 39q18 18 61 18q12 0 18.5 -7t14.5 -32q16 -49 311 -1081l569 1091l3 19q31 10 65 10q23 0 23 -31q-1 -608 -1 -922t1 -333q-37 -12 -88 -12q-16 0 -17 35q0 29 2 202.5t6 411.5l9 469l-207 -407l-245 -479q-101 -198 -112 -222 q-23 -20 -63 -27q-88 362 -299 1106q-262 -993 -283 -1065q-8 -25 -37 -24q-12 0 -26.5 3t-23.5 6t-11 3z" />
<glyph unicode="N" horiz-adv-x="1265" d="M86 -12l170 1153q6 33 -8 55l-41 68v10q45 12 78 12q14 0 37 -31q23 -35 85 -139l167 -283l169 -284q190 -317 230 -393q31 274 61 499l80 578q4 43 39 47q49 6 61 6q-129 -850 -180 -1290q-23 -23 -51 -23q-12 0 -33 35l-463 780l-159 279l-62 -479l-73 -539 q-6 -47 -37 -55q-31 -6 -70 -6z" />
<glyph unicode="O" horiz-adv-x="1265" d="M90 530q0 195 71.5 370t220 293t343.5 118h2q158 0 267.5 -80t157.5 -203t48 -276q0 -115 -23.5 -225.5t-73.5 -212t-123 -178.5t-180.5 -122t-234.5 -45q-221 0 -348 151.5t-127 409.5zM207 522q0 -207 97 -342t280 -135q164 0 281.5 109.5t167.5 265t50 330.5 q0 207 -89 346t-285 139h-2q-217 0 -358.5 -214t-141.5 -499z" />
<glyph unicode="P" horiz-adv-x="933" d="M100 25q74 473 172 1173l-45 -6l-45 -6l-4 4q0 35 35 70q96 31 254 30q227 0 334.5 -101.5t107.5 -275.5q0 -113 -42 -198.5t-107.5 -130.5t-131 -66.5t-128.5 -21.5q-98 0 -144 30q-25 18 -28 68l4 6q59 -25 143 -25q143 0 231.5 79t88.5 259q0 147 -90.5 223t-247.5 76 q-70 0 -80 -4l-172 -1208q-29 -12 -84 -12q-22 0 -22 22q-1 7 1 15z" />
<glyph unicode="Q" horiz-adv-x="1263" d="M88 532q0 197 72.5 372t221 291t343.5 116q236 0 354.5 -162t118.5 -404q0 -270 -124 -484t-353 -267q39 -10 164 -94q252 -158 391 -160l2 -4q-27 -59 -111 -60q-104 0 -366 164l-42 27l-38 23l-31 19q-23 13 -30 16t-25.5 12.5t-28.5 12.5l-27 8q-17 5 -33 7t-34 4 q-211 23 -317.5 173t-106.5 390zM205 526q0 -211 95 -346t280 -135q127 0 226 61.5t157.5 165t89 226.5t30.5 256q0 205 -90 343t-280 138h-2q-147 0 -264 -100.5t-179.5 -262.5t-62.5 -346z" />
<glyph unicode="R" horiz-adv-x="1017" d="M82 -12q76 426 182 1212q-16 -2 -32.5 -5t-32 -7t-21.5 -6l-4 6q6 31 39 63q104 39 260 39q182 0 281.5 -90t99.5 -246q0 -137 -85 -238.5t-224 -144.5q29 -29 176 -272.5t201 -296.5v-4q-25 -14 -76 -14q-53 0 -111 92l-211 346q-51 86 -82 105q-25 16 -78 16h-24 q-18 -2 -66 -2l-73 -492q-8 -53 -43 -59q-37 -2 -76 -2zM287 616q203 0 301 50q74 37 117 109.5t43 168.5q0 123 -77 195.5t-227 72.5q-39 0 -75 -4z" />
<glyph unicode="S" horiz-adv-x="837" d="M20 123q0 11 8 27q9 18 25 28q131 -125 297 -125q117 0 196 62.5t79 189.5q0 76 -55.5 148.5t-194.5 175.5q-127 90 -179.5 172t-52.5 178q0 150 101.5 241t257.5 91h2q70 0 144.5 -27t101.5 -63q-4 -25 -23.5 -43.5t-40.5 -6.5q-96 57 -192 58q-115 0 -182.5 -60.5 t-67.5 -173.5q0 -88 54 -156.5t189 -170.5q125 -92 183.5 -169t58.5 -180q0 -162 -108.5 -256t-286.5 -94q-180 0 -285 105q-29 26 -29 49z" />
<glyph unicode="T" horiz-adv-x="1042" d="M115 1229q14 47 41 61q41 -10 293 -10h673q-10 -80 -94 -80h-4h-371l-129 -948q-27 -201 -28 -254q-33 -10 -93 -10q-16 0 -16 35l160 1177h-381q-55 0 -51 29z" />
<glyph unicode="U" horiz-adv-x="1269" d="M164 647l45 354q10 78 23.5 165t15.5 104q39 16 80 16q15 0 15 -28q0 -25 -7 -95l-68 -528q-12 -93 -12 -171q0 -413 338 -413q90 0 152.5 21.5t123 87t103.5 201t69 346.5l68 512q8 57 35 63q53 4 67 4l-20 -166q-16 -133 -33 -248l-37 -258q-49 -354 -181 -499.5 t-359 -145.5q-246 0 -355 160q-77 113 -76 325q0 88 13 193z" />
<glyph unicode="V" horiz-adv-x="1142" d="M131 1262q25 25 82 24h2q18 0 49 -123l244 -1024l600 1147q47 -10 63 -18q13 -6 13 -21q0 -13 -10 -33l-621 -1159q-25 -53 -53 -67q-16 -10 -51 -15q-224 937 -318 1289z" />
<glyph unicode="W" horiz-adv-x="1732" d="M133 1268q37 18 82 18h2q18 0 31 -82q14 -78 164 -1063l481 1090q4 6 4 29q43 27 70 26q16 0 24 -53l176 -1088l525 1141h20q20 -2 35 -6q27 -7 26 -29q0 -8 -4 -18l-550 -1161q-29 -55 -58 -76q-31 -17 -53 -17q-4 0 -8 1l-176 1130l-471 -1067q-16 -33 -43 -49 q-25 -18 -66 -19q-168 1078 -211 1293z" />
<glyph unicode="X" horiz-adv-x="1058" d="M-41 10v4l518 648l-195 342q-148 256 -151 260v4q37 18 82 18q14 0 25.5 -13t33.5 -56l273 -478l413 510q31 37 46 37q35 0 73 -29v-4l-489 -591l167 -286l134 -232q49 -83 84 -136v-4q-43 -16 -84 -16q-25 0 -49 41q-39 61 -145 249l-175 308l-452 -576q-18 -23 -43 -22 q-39 -1 -66 22z" />
<glyph unicode="Y" horiz-adv-x="1077" d="M127 1264l2 6q49 16 84 16q23 0 68 -90l120 -231l148 -287q49 53 260 323.5t223 284.5q31 -2 63.5 -14t-8.5 -60l-258 -314l-235 -294q-12 -14 -21 -69l-32 -281q-27 -223 -29 -254q-41 -12 -88 -12q-14 0 -17.5 7t-0.5 30l59 473q2 23 4 54.5t2 39.5q0 33 -25 78 q-206 410 -319 594z" />
<glyph unicode="Z" horiz-adv-x="964" d="M-6 49q201 250 458 609.5t373 541.5h-622q-78 0 -78 21q0 33 47 71q57 -12 172 -12h625q2 -35 -31 -82q-106 -170 -337.5 -499.5t-455.5 -616.5q152 -14 401 -14t363 10l2 -4q-12 -31 -37.5 -51.5t-48.5 -26.5q-33 -8 -295 -8q-373 0 -497 16q-14 4 -26.5 19.5 t-12.5 25.5z" />
<glyph unicode="[" horiz-adv-x="577" d="M84 -330q0 29 94 766q113 850 133 912q12 10 109.5 22t163.5 12q12 -25 12 -43q0 -16 -33 -20q-98 -10 -147 -23q-29 -8 -41 -57q-2 -12 -14 -96l-39 -305l-56 -418q-82 -641 -82 -668q4 -35 39 -41q18 -4 170 -20q20 -4 21 -13q0 -16 -31 -45q-61 0 -132 7.5t-117 15.5 t-50 14z" />
<glyph unicode="\" horiz-adv-x="618" d="M170 1251q-1 10 -1 19q0 16 5 24q8 12 45 15l25 2l264 -1446q2 -11 2 -19q0 -32 -25 -32l-57 -9z" />
<glyph unicode="]" horiz-adv-x="577" d="M-12 -324q0 14 39 21q127 16 145 22q25 4 35 58q23 100 115 819q80 623 79 668q-2 29 -34 34q-57 14 -172 25q-18 4 -19 16q8 25 27 43q78 0 180 -13t119 -23q-2 -53 -17 -169l-39 -300q-25 -184 -36 -295q-90 -750 -134 -914q-14 -8 -111 -21.5t-167 -13.5 q-10 25 -10 43z" />
<glyph unicode="^" horiz-adv-x="1157" d="M143 477l349 717q14 27 45 35q43 6 63 4l369 -756q-10 -10 -39 -21.5t-43 -11.5q-18 0 -37 45l-299 639l-299 -651q-20 -33 -35 -33q-37 0 -74 33z" />
<glyph unicode="_" horiz-adv-x="1024" d="M-57 -154h1024v-102h-1024v102z" />
<glyph unicode="`" horiz-adv-x="819" d="M297 1313q-8 10 -8 18.5t8 16.5q41 37 63 36h2q16 -2 79 -105t94 -171q6 -15 5 -26q0 -13 -8 -19t-15 -12.5l-11 -10.5t-6 -4q-94 152 -203 277z" />
<glyph unicode="a" horiz-adv-x="954" d="M49 233q0 135 55.5 286t163.5 255q150 139 365 139q76 0 227 -36q-51 -221 -94 -592q-23 -162 -23 -287q-49 -23 -88 -23q-6 0 -6 36t5 101.5t16 143.5q0 6 8 56t10 73q-104 -205 -232 -307.5t-245 -102.5q-70 0 -116 63.5t-46 192.5v2zM160 229q0 -74 23.5 -118.5 t68.5 -44.5h2q131 0 282.5 198.5t196.5 456.5q16 66 17 92q-59 23 -132 23q-201 0 -315 -148q-143 -185 -143 -459z" />
<glyph unicode="b" horiz-adv-x="985" d="M86 84q8 33 64.5 420t76.5 555l21 168l11 96l5 43q53 27 86 27q13 0 13 -32q0 -19 -5 -50q-4 -20 -43 -301t-67 -461q100 172 223 267t236 95q72 0 117.5 -50t59 -106.5t13.5 -115.5q0 -166 -62.5 -315.5t-190.5 -249t-296 -99.5h-2q-70 0 -143.5 27t-116.5 82zM190 119 q23 -29 74.5 -46.5t97.5 -17.5q201 0 312.5 173t111.5 411q0 82 -30.5 132t-81.5 50h-2q-127 0 -274.5 -169t-188.5 -414q-15 -86 -19 -119z" />
<glyph unicode="c" horiz-adv-x="763" d="M59 291q0 240 140.5 431t361.5 191h2q41 0 86 -15t58 -34q-4 -27 -19.5 -42t-28.5 -11q-59 23 -114 23q-160 0 -269.5 -154t-109.5 -375q0 -115 46 -178.5t134 -63.5q150 0 287 144q20 -12 20 -43q0 -25 -24 -49q-129 -139 -316 -140q-106 0 -180 75t-74 241z" />
<glyph unicode="d" horiz-adv-x="974" d="M47 256q0 160 63.5 307.5t191.5 248.5t290 101q104 0 178 -53q45 262 72 508q39 25 86 25q9 0 9 -29q0 -22 -5 -59q-131 -827 -154 -1020q-19 -144 -19 -250q0 -19 1 -37q-49 -23 -88 -23q-5 1 -6 41q0 20 2 49q4 87 14 185q18 115 18 119q-92 -172 -217 -283t-252 -111 h-2q-84 0 -133 72t-49 209zM156 256q0 -188 108 -188h2q131 0 285 190.5t194 454.5q2 8 5.5 33.5t5.5 33.5q-66 55 -174 56q-188 0 -307 -169t-119 -411z" />
<glyph unicode="e" horiz-adv-x="788" d="M57 301q0 227 129 419.5t344 192.5h2q82 0 133.5 -44t51.5 -119q0 -84 -52.5 -149.5t-137.5 -104.5t-176 -59.5t-185 -24.5q-6 -33 -6 -99q0 -115 46 -183.5t138 -68.5q170 0 305 162q20 -6 21 -41q0 -33 -29 -65q-121 -141 -326 -142q-258 0 -258 326zM178 485 q227 14 335 85t108 169q0 47 -31 74t-80 27h-2q-123 0 -210 -105t-120 -250z" />
<glyph unicode="f" horiz-adv-x="456" d="M-312 -361q5 26 21 33q66 -43 129 -43q121 0 175.5 115t99.5 426q29 199 82 623h-150q10 74 55 75h103q18 139 51 241.5t66.5 158t77.5 88.5t78 41t75 8q84 0 119 -39q0 -25 -15.5 -43t-33.5 -10q-33 14 -74 14q-104 0 -159.5 -112.5t-84.5 -346.5q207 0 236 6 q-18 -49 -52 -69q-23 -12 -196 -12q-51 -410 -96 -713q-43 -293 -128 -412t-231 -119q-41 0 -83 14.5t-56 33.5q-11 12 -11 29q1 6 2 13z" />
<glyph unicode="g" horiz-adv-x="790" d="M-80 -195q0 109 240 246q-59 41 -60 96q0 18 30 50t63 55q-109 72 -109 235q0 162 99.5 294t265.5 132h2q80 0 153 -51q20 -14 39 -10q12 0 84 9t92 16q-6 -18 -16 -97h-146q29 -66 29 -141q0 -190 -105.5 -306t-250.5 -118q-47 0 -84 12q-49 -37 -49 -63q0 -49 92 -72 q213 -59 286 -86q63 -25 97.5 -73t34.5 -103q0 -115 -109 -208t-285 -93q-188 0 -290.5 88t-102.5 188zM20 -184q0 -82 91.5 -142.5t222.5 -60.5h2q125 0 198.5 57.5t73.5 130.5q0 51 -28.5 85t-102.5 59q-160 53 -256 73q-88 -47 -144.5 -103t-56.5 -99zM184 489 q0 -100 42 -151t118 -51q115 0 179.5 109.5t64.5 252.5v2q0 74 -38 131.5t-120 57.5q-106 0 -176 -102t-70 -249z" />
<glyph unicode="h" horiz-adv-x="999" d="M68 -16q39 193 161 1075l39 309q49 25 84 25q15 0 16 -29q0 -23 -8 -66l-114 -788q104 199 235 301t238 102h2q141 0 141 -193q0 -51 -10 -116l-55 -321q-35 -203 -39 -285q-45 -23 -90 -23q-7 0 -8 29q0 25 9 88q9 70 27 178l64 373q8 44 8 78q0 107 -80 106 q-59 0 -132 -46t-145.5 -132t-134 -231.5t-90.5 -321.5q-14 -80 -26 -92q-20 -16 -92 -20z" />
<glyph unicode="i" horiz-adv-x="403" d="M76 -16q31 201 74 516q43 328 45 389q53 25 84 24h2q18 0 12 -47l-109 -803q-4 -45 -24 -57q-43 -18 -84 -22zM227 1282q0 41 22.5 57.5t47.5 16.5h2q53 0 53 -64q0 -35 -22.5 -52t-46.5 -17q-56 0 -56 59z" />
<glyph unicode="j" horiz-adv-x="409" d="M-241 -381q0 19 10 29q37 -20 81 -21q106 0 155.5 88t82.5 299q47 315 82 582q29 219 29 293q41 25 86 24h2q10 0 10 -33q0 -14 -2 -34q-29 -248 -107 -789q-14 -98 -29.5 -166.5t-41 -137t-59 -110.5t-86 -68t-119.5 -26q-39 0 -72 21q-22 15 -22 49zM227 1282 q0 41 22.5 57.5t47.5 16.5h2q53 0 53 -64q0 -35 -22.5 -52t-46.5 -17q-56 0 -56 59z" />
<glyph unicode="k" horiz-adv-x="876" d="M57 -16q59 281 170 1077q37 272 37 303q41 29 88 29q10 0 10 -35q0 -22 -4 -58l-122 -806q127 119 399 327q121 92 147 92q16 0 32.5 -18t16.5 -35q-70 -39 -235.5 -165t-253.5 -203q63 -92 206.5 -253t217.5 -219q-6 -12 -31.5 -28.5t-44.5 -16.5q-29 0 -141 121 q-184 203 -318 379q-27 -201 -57 -373q-14 -80 -31 -94q-31 -24 -86 -24z" />
<glyph unicode="l" horiz-adv-x="403" d="M63 -16q61 332 162 1075q35 242 41 313q53 20 86 21q9 0 9 -27q0 -23 -7 -66l-176 -1216q-10 -74 -35 -84q-33 -12 -80 -16z" />
<glyph unicode="m" horiz-adv-x="1572" d="M66 -16q68 389 86 524q37 272 37 364q0 9 -1 17q37 25 91 24q6 0 8 -22q1 -6 0 -17q0 -26 -3 -77q-5 -72 -20 -185q-2 -10 -6 -42.5t-8 -53.5h6q94 178 219 287.5t236 109.5q143 0 143 -201q0 -58 -12 -132q-4 -18 -5 -31.5t-3 -24.5h6q100 188 222 288.5t230 100.5 q146 0 146 -204q0 -60 -13 -138q-4 -27 -47 -288q-31 -195 -35 -285q-41 -23 -94 -23q-4 4 -3 38t9.5 103.5t22.5 149.5q53 324 55 342q5 42 5 77q0 139 -87 138q-49 0 -114.5 -43t-138 -126t-137 -234.5t-99.5 -341.5q-8 -39 -15.5 -53.5t-23.5 -22.5q-29 -16 -76 -18 q4 29 26 148l43 250q22 130 34 232q5 42 5 77q0 133 -83 132q-47 0 -111.5 -42t-139.5 -124t-141.5 -234.5t-97.5 -344.5q-8 -61 -39 -76q-26 -14 -77 -18z" />
<glyph unicode="n" horiz-adv-x="995" d="M68 -16q41 223 84 524q38 265 37 358q0 13 -1 23q33 25 91 24q5 0 5 -35q0 -28 -4 -87q-5 -72 -20 -179q-2 -27 -14 -104h6q94 180 223 292.5t242 112.5q37 0 62.5 -10t52 -44t28.5 -99v-20q0 -62 -10 -156l-22 -130l-27 -171q-35 -242 -35 -285q-45 -23 -96 -23 q-4 6 -4 31t8 96.5t24 167.5q2 16 23.5 139t32.5 205q10 47 9 86q0 35 -7 63q-16 60 -78 60q-55 0 -126 -49t-143.5 -137t-135 -235.5t-91.5 -323.5q-8 -39 -15 -53.5t-24 -22.5q-28 -16 -75 -18z" />
<glyph unicode="o" horiz-adv-x="913" d="M57 317q0 135 52.5 268.5t164 230.5t254.5 97h2q147 0 217 -94t70 -248q0 -248 -135 -422t-330 -174q-295 0 -295 342zM170 309q0 -137 55.5 -197.5t139.5 -60.5q129 0 234.5 145.5t105.5 389.5q0 104 -44.5 178t-144.5 74h-2q-137 0 -240.5 -157t-103.5 -372z" />
<glyph unicode="p" horiz-adv-x="985" d="M-6 -451q94 526 158 992q39 293 43 352q49 33 104 33l-27.5 -190t-25.5 -187h6q96 168 213 265t240 97q102 0 148 -87t46 -187q0 -268 -141.5 -465t-366.5 -197q-135 0 -217 86q-8 -59 -21 -139l-27 -161q-13 -81 -17 -109q-10 -68 -29 -80q-25 -21 -86 -23zM190 156 q29 -41 86.5 -68t118.5 -27q188 0 290.5 166t102.5 396q0 88 -30.5 142t-89.5 54h-2q-125 0 -276.5 -178t-190.5 -438q-3 -10 -9 -47z" />
<glyph unicode="q" horiz-adv-x="974" d="M49 244v2q0 166 62.5 315.5t195.5 250.5t309 101q94 0 261 -45q-37 -195 -193 -1233q-8 -51 -35 -67q-31 -16 -82 -19q10 45 31 170l51 319l51 312q-98 -184 -223 -279.5t-246 -95.5q-78 0 -130 69t-52 200zM158 248v-2q0 -72 28.5 -126t83.5 -54q53 0 121 38.5 t140.5 115.5t135 214t89.5 307q2 12 8 68q-80 27 -164 27q-139 0 -242.5 -88.5t-151.5 -219t-48 -280.5z" />
<glyph unicode="r" horiz-adv-x="641" d="M61 -16q41 193 99 596q19 134 19 221q0 52 -7 88q29 25 84 24q6 0 10 -30q2 -18 3 -54q0 -27 -2 -64q-3 -87 -19 -212h4q78 166 169 263t167 97q49 0 67 -32q2 -33 -37 -78q-29 16 -55 16q-18 0 -48 -17.5t-76 -68.5t-91 -128t-91 -213t-77 -306q-14 -76 -41 -86 q-29 -12 -78 -16z" />
<glyph unicode="s" horiz-adv-x="677" d="M35 53q-7 10 -7 24q0 23 19 58q104 -80 211 -80q96 0 145.5 46t49.5 118q0 53 -31 93t-139 112q-94 59 -128 109.5t-34 119.5q0 111 84 185.5t205 74.5h2q45 0 100 -20.5t78 -48.5q-13 -52 -43 -52q-9 0 -21 5q-84 37 -135 37q-74 0 -124 -45.5t-50 -116.5q0 -53 32 -91 t138 -110q104 -68 135 -117t31 -114q0 -113 -85 -189t-214 -76q-158 0 -219 78z" />
<glyph unicode="t" horiz-adv-x="602" d="M74 793q0 25 16 50t37 25h100q6 29 12.5 66l10.5 59.5t9 46t9 37t8 17.5q45 45 95 45l-47 -271q225 0 278 9q-12 -45 -51 -68q-25 -16 -240 -16q-61 -367 -82 -539q-6 -48 -5 -83q0 -41 7 -65q14 -43 62 -43q98 0 205 142h4q11 -21 11 -43q0 -37 -34 -76 q-98 -111 -219 -111q-82 0 -117 66q-20 38 -20 112q0 52 10 121q18 137 82 519h-141z" />
<glyph unicode="u" horiz-adv-x="978" d="M119 309q20 131 49 285q25 154 39 293q49 27 90 26q11 0 11 -29q0 -15 -3 -36q-63 -381 -92 -578q-6 -40 -6 -72q0 -54 17 -85q28 -49 81 -50q49 0 109.5 35t130 111t131 226.5t96.5 350.5q14 94 41 109q39 18 78 18q-68 -313 -103 -628q-20 -146 -19 -242q0 -24 1 -45 q-49 -23 -86 -23q-6 0 -7 39v12q0 39 5 109q6 82 18 184l-4 3q-180 -346 -430 -347q-104 0 -138 94q-20 54 -20 126q1 52 11 114z" />
<glyph unicode="v" horiz-adv-x="827" d="M127 889q43 25 82 24q18 0 18 -47q-1 -47 0 -92q0 -276 21 -530q10 -123 20 -142q160 145 288 346t128 386v57q45 23 72 22q20 0 20 -94v-2q0 -158 -110 -346q-150 -262 -359 -444q-33 -27 -49 -33q-49 -18 -65 -19q-29 57 -46 283q-16 264 -20 631z" />
<glyph unicode="w" horiz-adv-x="1298" d="M138 589q1 216 1 300q61 25 84 24.5t21 -47.5q-9 -221 -10 -426q0 -68 2 -135q0 -139 14 -182q84 109 209 301t188 344v55q41 29 76 29h2q16 0 16 -47q0 -131 21.5 -388t42.5 -306q121 129 237.5 329.5t116.5 378.5q0 35 -6 78q33 16 70 16q10 0 17 -34.5t7 -67.5 q0 -135 -81 -305t-160.5 -276.5t-155.5 -186.5q-33 -33 -66 -51q-37 -18 -57 -19q-20 47 -44 277.5t-28 370.5q-66 -137 -181.5 -315.5t-194.5 -272.5q-16 -20 -48 -39q-31 -16 -57 -19q-31 57 -35 304q-1 63 -1 179v131z" />
<glyph unicode="x" horiz-adv-x="794" d="M-51 0q0 27 67.5 106.5t315.5 352.5q-106 221 -219 428l2 4q35 23 78 22q18 0 38 -45l177 -342q270 291 340 402q18 0 34.5 -20.5t14.5 -45.5q-14 -47 -353 -407q190 -369 238 -447v-4q-33 -16 -78 -16q-25 0 -39 22q-18 29 -50 90l-75 147l-69 136q-322 -346 -363 -432 q-23 0 -41 17.5t-18 31.5z" />
<glyph unicode="y" horiz-adv-x="817" d="M-92 -410q168 150 344 392q-23 49 -45 165q-78 414 -107 740q41 27 78 26q18 0 23 -36q33 -305 92 -660q18 -111 37 -141q172 242 262 462t96 361q29 14 68 14q16 0 16 -45q0 -113 -84 -324.5t-237 -445.5q-109 -164 -252.5 -332.5t-212.5 -226.5q-29 0 -55.5 19.5 t-22.5 31.5z" />
<glyph unicode="z" horiz-adv-x="706" d="M-25 47q113 129 316 393.5t262 370.5q-115 -4 -186 -4q-100 0 -152.5 1t-85.5 5t-40 9t-3 18q8 27 55 67q12 -12 58.5 -15t224.5 -3h2q225 0 260 4q-8 -37 -37 -90q-43 -78 -201.5 -297t-324.5 -422q20 -12 237 -12q254 0 289 10q4 -16 -8 -40t-39 -36q-27 -16 -266 -16 q-309 0 -342 22q-15 23 -19 35z" />
<glyph unicode="{" horiz-adv-x="577" d="M80 574.5q0 7.5 5 17.5t11 18q166 2 189 166q6 43 12 305q6 213 133 299q72 49 168 54q6 -14 6 -37q0 -18 -43 -31q-168 -51 -168 -281q0 -193 -4 -245q-20 -215 -162 -267q68 -59 83 -136q6 -28 6 -60q0 -56 -17 -123q-49 -233 -59 -320q-4 -29 -4 -53q0 -159 145 -186 q18 -4 18 -19q-11 -31 -37 -38q-220 20 -220 265q0 29 3 60q8 76 37 218.5t33 176.5q4 28 4 53q0 56 -20 90q-29 48 -115 64q-4 2 -4 9.5z" />
<glyph unicode="|" horiz-adv-x="514" d="M180 -512v2048h92v-2048h-92z" />
<glyph unicode="}" horiz-adv-x="577" d="M-37 -328q0 23 45 35q92 29 129 92.5t39 171.5q0 84 17 334q10 119 43.5 184.5t115.5 92.5q-53 29 -73 77q-18 43 -18 79v11q3 40 15 103q41 172 56 283q3 26 3 48q0 160 -151 189q-14 4 -18 19q8 31 35 41q117 -10 175 -98q47 -70 47 -174q0 -26 -3 -54 q-10 -78 -36 -205t-28 -143q-3 -20 -3 -38q0 -108 122 -110q3 -7 3 -14q0 -15 -15 -31q-96 -23 -128 -71t-44 -166q-8 -80 -13.5 -203t-5.5 -139q-12 -215 -135 -293q-78 -51 -170 -58q-4 12 -4 37z" />
<glyph unicode="~" horiz-adv-x="1157" d="M106 377q12 111 44 186.5t73 107t72 42t63 10.5h2q68 0 117 -27.5t107 -85.5q6 -6 32.5 -34.5t36 -38t33 -30t38.5 -28.5t35.5 -15t41.5 -7q66 0 101.5 50t49.5 177q4 31 23 31q33 0 55 -27q-16 -324 -227 -323q-68 0 -125 39.5t-143 130.5q-98 100 -173 100 q-123 0 -161 -223q-8 -43 -49 -43q-26 0 -46 8z" />
<glyph unicode="&#xa1;" horiz-adv-x="317" d="M-14 -315q10 55 61 386l57 369q4 35 27 54q37 20 53 20q-2 -29 -40 -382t-46 -435q-8 -18 -39.5 -33.5t-52.5 -15.5h-2q-20 0 -20 23zM106 821q0 41 24 66.5t63 25.5q31 0 51 -20.5t20 -54.5q0 -41 -23.5 -67t-62.5 -26h-2q-31 0 -50.5 21.5t-19.5 54.5z" />
<glyph unicode="&#xa2;" d="M104 565q0 176 112 303t304 146l27 123q6 29 35 34q22 5 40 6q9 0 17 -1l-31 -158q102 -12 158 -55q-4 -33 -27 -50q-18 -12 -49 2q-59 27 -129 27q-172 0 -263 -106.5t-91 -257.5q0 -133 72.5 -215t195.5 -82q63 0 131 20.5t105 46.5q3 -14 3 -26q0 -44 -40 -66 q-72 -47 -193 -55l-26 -152q-4 -25 -14.5 -34t-32.5 -13q-12 -2 -48 -2l41 203q-152 27 -224.5 123t-72.5 239z" />
<glyph unicode="&#xa3;" d="M-10 33l10 26q186 143 203 506q-143 0 -160 15q-10 10 2 16q78 43 164 49q16 319 102 471t267 152q113 0 172 -60q0 -27 -17.5 -45t-40.5 -6q-61 29 -125 29q-80 0 -131 -41t-76.5 -139.5t-34 -154.5t-16.5 -187q-2 -14 -2 -21q356 0 379 2q-18 -66 -90 -76 q-29 -4 -297 -4q-12 -326 -176 -485q70 -29 206 -52.5t232 -23.5q152 0 221 27l2 -2q-12 -59 -53 -78q-57 -29 -170 -29q-290 0 -571 111z" />
<glyph unicode="&#xa4;" d="M49 219l119 129q-74 90 -74 232q0 158 107 272q-2 2 -26 32l-46 60q-20 27 -8 49q18 31 41 39q86 -106 104 -125q80 55 193 56h2q121 0 196 -68q29 29 68 73t55 60q31 -31 31 -84q-2 -8 -14 -22l-40 -45l-50 -56q43 -90 43 -184q0 -180 -103 -277q94 -129 96 -135 q-25 -59 -49 -61q-10 2 -114 143q-78 -55 -183 -55q-94 0 -166 41l-92 -103q-25 -28 -45 -28q-7 0 -14 4q-31 24 -31 53zM188 578q0 -106 56.5 -179t158.5 -73q113 0 182.5 86t69.5 221q0 115 -51 185.5t-160 70.5h-2q-113 0 -183.5 -88t-70.5 -223z" />
<glyph unicode="&#xa5;" d="M72 319q-1 6 -1 12q0 35 23 58h252l21 178h-281q0 41 25 70h260q-170 369 -269 551v6q35 25 74 25q14 0 25 -21q14 -27 54 -114l94 -203l87 -187q248 332 365 502q12 16 23.5 19.5t29.5 -5.5q37 -11 37 -23q0 -4 -4 -9l-408 -541h273l-13 -41q-6 -29 -45 -29h-237 l-23 -178h260l-18 -45q-10 -25 -51 -25h-201l-35 -319q-39 -16 -74 -16q-20 0 -16 41l35 294h-262z" />
<glyph unicode="&#xa6;" horiz-adv-x="514" d="M180 -358v716h92v-716h-92zM180 666v716h92v-716h-92z" />
<glyph unicode="&#xa7;" horiz-adv-x="835" d="M39 -154q11 49 35 50q11 0 24 -11q76 -57 162 -57q68 0 118 47q45 42 45 112q0 9 -1 17q-4 47 -34 112.5t-128 211.5q-160 236 -160 360q0 231 201 399q27 98 91.5 150.5t160.5 52.5h2q39 0 83 -15t67 -40q-2 -23 -19.5 -40t-38.5 -5q-53 27 -102 27q-86 0 -125 -49 q-37 -46 -37 -114q0 -39 18 -84q16 -40 32 -64.5t66 -95.5l74 -108q78 -115 112 -192.5t34 -153.5q0 -111 -42 -206t-167 -209q-31 -88 -99.5 -138.5t-160.5 -50.5q-74 0 -130 29.5t-81 64.5zM184 715q0 -53 27 -119t54 -110l87 -134q78 -117 110 -182.5t44 -142.5 q127 127 127 315v2q0 115 -152 330l-88 131q-27 41 -56.5 101.5t-33.5 103.5q-119 -123 -119 -295z" />
<glyph unicode="&#xa8;" horiz-adv-x="819" d="M242 1169q0 31 21.5 56.5t58.5 25.5h2q29 0 48 -21.5t19 -51.5q0 -35 -22.5 -58.5t-57.5 -23.5q-31 0 -50 20t-19 53zM549 1167q0 31 22.5 57.5t57.5 26.5h2q31 0 49 -21.5t18 -51.5q0 -35 -22.5 -58.5t-54.5 -23.5q-31 0 -51.5 19t-20.5 52z" />
<glyph unicode="&#xa9;" horiz-adv-x="1370" d="M92 647q0 285 174 464t432 179h2q266 0 431 -186t165 -457q0 -285 -172 -464t-426 -179q-258 0 -432 179t-174 464zM178 647q0 -238 147.5 -405.5t376.5 -167.5q225 0 366.5 164.5t141.5 408.5q0 238 -138 406t-372 168h-2q-227 0 -373.5 -166t-146.5 -408zM401 641 q0 150 97.5 247t257.5 97q59 0 111.5 -16.5t70.5 -34.5q0 -53 -29 -53q-9 0 -22 6q-68 29 -144 28q-92 0 -169.5 -65.5t-77.5 -194.5q0 -127 71.5 -198.5t202.5 -71.5q90 0 158 31v-4q-6 -45 -35 -68q-49 -33 -158 -33q-145 0 -239.5 92.5t-94.5 237.5z" />
<glyph unicode="&#xaa;" horiz-adv-x="665" d="M86 739q0 172 101.5 302t269.5 130q33 0 168 -24q-29 -109 -60 -395q-16 -137 -14 -170q-74 -18 -76 -19q-12 0 -12 37q0 26 6 70q6 51 16 110q-61 -104 -139 -160.5t-143 -56.5h-2q-47 0 -81 44t-34 132zM180 745q0 -98 56 -98h2q72 0 158.5 101.5t113.5 255.5 q2 6 7 42.5t7 47.5q-31 10 -88 10q-117 0 -186.5 -110t-69.5 -249z" />
<glyph unicode="&#xab;" horiz-adv-x="1054" d="M86 479q188 180 299 365q37 -30 37 -65q0 -32 -88 -147q-90 -118 -146 -175q31 -47 99.5 -175t70.5 -151q0 -16 -13 -35.5t-30 -23.5q-72 145 -219 358q-10 18 -10 49zM422 479q178 178 315 387q41 -25 41 -58q0 -47 -250 -351q47 -66 114 -188t69 -156q2 -20 -15.5 -41 t-33.5 -27q-76 188 -228 383q-12 22 -12 51z" />
<glyph unicode="&#xac;" horiz-adv-x="1157" d="M119 649q2 47 14 64.5t45 17.5h828l14 -18v-480q0 -51 -82 -55l-12 -4v475h-807z" />
<glyph unicode="&#xad;" horiz-adv-x="516" d="M29 410q23 76 55 84q315 41 369 55l2 -4q-6 -31 -33 -60.5t-72 -40.5q-156 -37 -317 -41z" />
<glyph unicode="&#xae;" horiz-adv-x="468" d="M100 1102q0 88 56.5 148.5t146.5 60.5h2q90 0 147.5 -59.5t57.5 -149.5q0 -88 -57.5 -147.5t-149.5 -59.5q-90 0 -146.5 59.5t-56.5 147.5zM150 1104q0 -76 43 -122t112 -46q68 0 112 47t44 121q0 72 -44 119t-116 47h-2q-63 0 -106 -47t-43 -119zM231 995v209q66 8 68 8 q88 0 88 -65q0 -41 -43 -53q4 -4 26.5 -43t35.5 -50v-4q-16 -4 -29 -4q-20 0 -35 21q-16 25 -25 47q-12 23 -43 20v-69q0 -16 -16 -17h-27zM274 1108q31 0 41 2q27 8 27 37q0 35 -41 35q-23 0 -27 -2v-72z" />
<glyph unicode="&#xaf;" horiz-adv-x="819" d="M285 1135q0 43 26 63h355q18 0 18 -12q0 -35 -31 -72h-346q-22 1 -22 21z" />
<glyph unicode="&#xb0;" horiz-adv-x="524" d="M121 1004q0 96 61.5 162.5t159.5 66.5h2q82 0 131 -55.5t49 -139.5q0 -92 -62.5 -155.5t-162.5 -63.5q-74 0 -126 49.5t-52 135.5zM205 1008q0 -53 28.5 -86t75.5 -33q61 0 96 40t35 105q0 129 -104 129h-2q-63 0 -96 -42.5t-33 -112.5z" />
<glyph unicode="&#xb1;" horiz-adv-x="1157" d="M113 618q4 82 65 82h338v236q0 80 -6 131l47 10q8 2 15 2q18 0 26 -12q10 -16 10 -57v-310h404q-4 -82 -66 -82h-338v-362q0 -51 -57 -57l-35 -4v423h-403zM115 0q4 82 63 82h836q-4 -82 -66 -82h-833z" />
<glyph unicode="&#xb2;" horiz-adv-x="563" d="M96 893l19 37q4 2 75.5 56t101.5 80t82 78t74.5 100t22.5 97q0 57 -34 89t-85 32q-104 0 -190 -80h-4q-4 18 3 45t19 37q84 72 189 72q86 0 139 -50t53 -136q0 -37 -12 -75t-38 -74l-47 -63q-22 -28 -61 -62l-57 -49q-18 -15 -58 -45t-42 -32q67 -4 151 -4t187 4 q-20 -51 -41 -63q-31 -12 -185 -13q-182 0 -260 13z" />
<glyph unicode="&#xb3;" horiz-adv-x="563" d="M98 936h4q82 -43 170 -43q76 0 128.5 35t52.5 110q0 57 -45.5 90t-114.5 33q-39 0 -76 -8l-4 8q23 45 29 49q195 43 194 160q0 41 -26.5 65.5t-73.5 24.5q-88 0 -164 -76q-4 4 -8 15q-2 10 -2 19q0 30 20 50q74 68 174 68q72 0 121 -40t49 -110q0 -66 -34.5 -104.5 t-94.5 -69.5q147 -43 148 -168q0 -106 -80 -164.5t-184 -58.5q-59 0 -108.5 15.5t-63.5 37.5q-11 22 -12 48q0 7 1 14z" />
<glyph unicode="&#xb4;" horiz-adv-x="819" d="M383 1063q-3 3 -3 10q0 14 13 43q39 78 97.5 171t72.5 93h2q37 0 66 -37q7 -7 6 -14q0 -11 -14 -24q-68 -76 -203 -275q-14 6 -37 33z" />
<glyph unicode="&#xb5;" horiz-adv-x="983" d="M8 -354l162 948q25 154 39 293q49 27 90 26q11 0 11 -29q0 -15 -3 -36q-63 -381 -90 -578q-6 -40 -6 -72q0 -54 17 -85q28 -49 79 -50q49 0 109.5 35t130 111t131 226.5t96.5 350.5q10 61 17.5 81t23.5 28q39 18 78 18q-68 -313 -102 -628q-20 -146 -20 -242q0 -24 1 -45 q-49 -23 -86 -23q-6 0 -7 39v12q0 39 5 109q6 82 18 184l-4 3q-180 -346 -428 -347q-66 0 -100 56q-18 -131 -72 -482q-35 0 -65 19q-28 14 -28 51q0 12 3 27z" />
<glyph unicode="&#xb6;" horiz-adv-x="917" d="M82 -166q0 27 27 53h4q76 -78 186 -77q115 0 178.5 102t95.5 319l19 117l-68 -16q-33 -8 -78 -8q-119 0 -215 91q-94 89 -94 242q0 193 118 308q116 113 271 112h193h203l2 -8q-8 -31 -39 -57l-115 -11l-94 -698q-39 -289 -127 -429t-260 -140q-90 0 -147.5 34.5 t-59.5 65.5z" />
<glyph unicode="&#xb7;" horiz-adv-x="303" d="M63 449q0 43 24 69.5t65 26.5h2q31 0 49 -22.5t18 -55.5q0 -41 -23.5 -66.5t-62.5 -25.5q-33 0 -52.5 20.5t-19.5 53.5z" />
<glyph unicode="&#xb8;" horiz-adv-x="819" d="M201 -391q-2 6 2 10t18 8q158 31 158 109q0 43 -48 63.5t-112 20.5v6l133 182h92l-86 -119q121 -43 121 -139q0 -88 -75.5 -135t-170.5 -57q-14 2 -24 20.5t-8 30.5z" />
<glyph unicode="&#xb9;" horiz-adv-x="563" d="M193 1386q6 25 30 56q59 14 135 45t105 49l6 -4l-82 -627q-2 -31 -39 -35l-51 -4q18 82 78 555q-106 -35 -180 -39z" />
<glyph unicode="&#xba;" horiz-adv-x="604" d="M92 795q0 147 83 261.5t224 114.5h2q88 0 138.5 -67.5t50.5 -159.5q0 -172 -84 -276.5t-211 -104.5q-96 0 -149.5 63t-53.5 169zM184 799q0 -168 119 -168q78 0 135.5 85t57.5 222q0 66 -28 115t-83 49h-2q-90 0 -144.5 -95t-54.5 -208z" />
<glyph unicode="&#xbb;" horiz-adv-x="1054" d="M256 102q0 14 20.5 51t56.5 85l67 87l67 83q35 43 39 49q-43 59 -111.5 183t-70.5 159q-2 23 16 42t35 25q68 -180 225 -383q12 -20 12 -51q-180 -180 -313 -387q-39 20 -43 57zM612 132q0 30 84 141q86 114 150 184q-27 39 -97.5 171t-72.5 152q-2 16 12 36t31 24 q63 -127 219 -359q10 -18 10 -49q-188 -180 -299 -364q-37 31 -37 64z" />
<glyph unicode="&#xbc;" horiz-adv-x="1331" d="M135 -2l895 1274q9 13 20 13t23 -13q18 -25 21 -45l-895 -1272q-13 -17 -24 -17q-7 0 -13 9q-27 22 -27 51zM160 1083q6 25 30 56q59 14 135 44.5t105 49.5l4 -4q-2 -20 -16 -130l-35 -268l-29 -229q-2 -31 -41 -35l-51 -4q14 66 76 551q-92 -31 -176 -35zM837 450 q116 134 171 183q63 51 133 53l6 -8q-201 -184 -389 -436q55 -8 233 -13l27 164q8 8 35.5 20.5t38.5 14.5h8l-29 -195q45 0 103 9l2 -6q-14 -41 -39 -60q-4 -2 -76 -12q-10 -66 -21 -162q-47 -16 -82 -20l-8 10q20 109 27 168q-217 0 -299 16q-6 6 -16 23q-9 14 -9 20 q0 21 30 60t86.5 98.5t67.5 72.5z" />
<glyph unicode="&#xbd;" horiz-adv-x="1331" d="M121 -2l895 1274q10 13 21 13t22 -13q16 -20 20 -45l-895 -1272q-13 -17 -23 -17q-7 0 -14 9q-26 22 -26 51zM145 1083q6 25 31 56q59 14 135 44.5t105 49.5l4 -4q-2 -20 -17 -130l-34 -268l-29 -229q-2 -31 -41 -35l-51 -4q14 66 76 551q-90 -31 -177 -35zM713 12l18 37 l64 48q55 42 79.5 62.5t73.5 65.5t74 78t45 77t20 83q0 55 -34.5 88t-83.5 33q-104 0 -189 -78h-4q-4 16 3 44t20 38q84 70 186 69h2q86 0 138.5 -51t52.5 -137q0 -37 -12.5 -75t-37 -73.5t-48 -64.5t-61.5 -61l-57 -50q-19 -16 -57.5 -43.5t-42.5 -31.5q67 -4 151.5 -4 t186.5 4q-20 -51 -41 -64q-31 -12 -184 -12q-180 0 -260 12z" />
<glyph unicode="&#xbe;" horiz-adv-x="1331" d="M82 633l2 2q82 -45 174 -45q76 0 128 34.5t52 110.5q0 59 -45 91t-114 32q-10 0 -76 -8l-4 4q18 47 30 53q195 47 195 160q0 41 -26.5 65.5t-73.5 24.5q-88 0 -166 -74q-11 7 -11 27q0 32 23 55q74 68 174 68h2q72 0 120 -40t48 -110q0 -109 -131 -174q147 -47 147 -168 q0 -106 -79.5 -164.5t-184.5 -58.5q-59 0 -108 15.5t-64 37.5q-13 26 -13 50q0 6 1 12zM213 -2l895 1274q9 13 20 13t23 -13q18 -25 20 -45l-895 -1272q-13 -17 -23 -17q-7 0 -13 9q-27 22 -27 51zM856 447q117 132 174 184q53 49 131 55l6 -10q-205 -190 -389 -434 q55 -8 234 -13l26 164q8 8 36 20.5t38 14.5h8l-28 -195q43 0 100 9l4 -6q-14 -41 -39 -60q-4 -2 -76 -12q-10 -66 -20 -162q-45 -16 -80 -20l-8 10q20 109 26 168q-221 0 -299 16q-8 6 -18 23q-9 14 -9 20q0 21 28.5 58.5t87.5 99t67 70.5z" />
<glyph unicode="&#xbf;" horiz-adv-x="579" d="M-41 -147q0 80 56.5 141t162.5 129q90 55 133 97t43 99q0 61 -53 99q-50 35 -141 35h-10q-8 4 -9 8q-4 25 19 47q18 14 63 14q84 0 156 -52t72 -153q0 -74 -49.5 -134t-157.5 -122q-88 -53 -135.5 -101t-47.5 -110q0 -51 38 -85.5t108 -34.5q84 0 168 59q29 23 45 -6 q10 -18 6 -41q-109 -94 -246 -94h-2q-92 0 -155.5 55.5t-63.5 149.5zM240 823q0 37 23.5 63.5t60.5 26.5q35 0 54 -21.5t19 -55.5q0 -39 -22.5 -65t-59.5 -26h-2q-73 0 -73 78z" />
<glyph unicode="&#xc0;" horiz-adv-x="1198" d="M-31 12q573 1036 656 1200l-15 43q20 31 72 31q18 0 27 -26l258 -852q94 -315 129 -398v-4q-59 -18 -86 -18q-12 0 -20.5 10t-18.5 43l-133 426h-521l-245 -457q-12 -23 -33 -22q-23 0 -68 20zM360 547h459l-67 231l-60 206l-37 126zM428 1516q8 20 31.5 40.5t42.5 20.5 h2q25 0 118 -53.5t148 -96.5q14 -10 14 -21q0 -7 -6 -15q-10 -14 -28 -29q-184 94 -312 133q-14 3 -13 11q0 5 3 10z" />
<glyph unicode="&#xc1;" horiz-adv-x="1198" d="M-31 12q573 1036 656 1200l-15 43q20 31 72 31q18 0 27 -26l258 -852q94 -315 129 -398v-4q-59 -18 -86 -18q-12 0 -20.5 10t-18.5 43l-133 426h-521l-245 -457q-12 -23 -33 -22q-23 0 -68 20zM360 547h459l-67 231l-60 206l-37 126zM565 1393q-3 7 -3 12q0 14 18 25 q53 37 152 89t130 56q16 -8 38 -28.5t30 -37.5q2 -5 2 -9q0 -16 -25 -23q-182 -51 -317 -115q-17 11 -25 31z" />
<glyph unicode="&#xc2;" horiz-adv-x="1198" d="M-31 12q573 1036 656 1200l-15 43q20 31 72 31q18 0 27 -26l258 -852q94 -315 129 -398v-4q-59 -18 -86 -18q-12 0 -20.5 10t-18.5 43l-133 426h-521l-245 -457q-12 -23 -33 -22q-23 0 -68 20zM360 547h459l-67 231l-60 206l-37 126zM444 1374q115 98 207 191 q12 12 27 20q18 4 31 4q66 -98 178 -205q-23 -33 -53 -32q-27 0 -35 12q-25 18 -119 121q-92 -86 -145 -119q-33 -14 -41 -14h-2q-25 -1 -48 22z" />
<glyph unicode="&#xc3;" horiz-adv-x="1198" d="M-31 12q573 1036 656 1200l-15 43q20 31 72 31q18 0 27 -26l258 -852q94 -315 129 -398v-4q-59 -18 -86 -18q-12 0 -20.5 10t-18.5 43l-133 426h-521l-245 -457q-12 -23 -33 -22q-23 0 -68 20zM360 547h459l-67 231l-60 206l-37 126zM465 1389q20 188 129 188h2 q63 0 123 -72q49 -59 65 -59q33 0 47 108q4 23 21 23q27 0 49 -33q-6 -82 -36.5 -132t-82.5 -50q-12 0 -23 4t-18.5 7t-19.5 14.5t-18 16.5l-20 21l-21 23q-41 47 -68 47q-33 0 -57 -100q-4 -23 -16.5 -22.5t-55.5 16.5z" />
<glyph unicode="&#xc4;" horiz-adv-x="1198" d="M-31 12q573 1036 656 1200l-15 43q20 31 72 31q18 0 27 -26l258 -852q94 -315 129 -398v-4q-59 -18 -86 -18q-12 0 -20.5 10t-18.5 43l-133 426h-521l-245 -457q-12 -23 -33 -22q-23 0 -68 20zM360 547h459l-67 231l-60 206l-37 126zM440 1440q0 31 22.5 55.5t57.5 24.5 h2q29 0 48.5 -22.5t19.5 -53.5q0 -35 -22.5 -58.5t-55.5 -23.5q-31 0 -51.5 20.5t-20.5 57.5zM756 1438q0 31 22.5 56.5t55.5 25.5h2q29 0 49 -21.5t20 -52.5q0 -39 -21.5 -61.5t-56.5 -22.5q-31 0 -51 20.5t-20 55.5z" />
<glyph unicode="&#xc5;" horiz-adv-x="1198" d="M-31 12q573 1036 656 1200l-15 43q20 31 72 31q18 0 27 -26l258 -852q94 -315 129 -398v-4q-59 -18 -86 -18q-12 0 -20.5 10t-18.5 43l-133 426h-521l-245 -457q-12 -23 -33 -22q-23 0 -68 20zM360 547h459l-67 231l-60 206l-37 126zM514 1513q0 74 51 124.5t129 50.5h2 q70 0 112 -45.5t42 -116.5q0 -78 -51 -126t-131 -48q-68 0 -111 42.5t-43 118.5zM598 1513q0 -90 80 -90q39 0 63.5 29t24.5 68q0 94 -80 94h-2q-39 0 -62.5 -32t-23.5 -69z" />
<glyph unicode="&#xc6;" horiz-adv-x="1556" d="M-35 2l2 8l864 1192q6 6 31 58q33 12 139 20h504q0 -45 -28 -61q-29 -18 -115 -19h-303l-72 -586h459q-18 -51 -40 -65t-71 -14h-356l-53 -449q57 -16 252 -16q211 0 309 10l2 -10q-20 -35 -76 -70q-45 -10 -215 -10q-262 0 -356 20l-25 41l62 484q-348 0 -445 -25 q-305 -444 -364 -516q-12 -16 -35 -17q-29 0 -70 25zM496 594q100 20 393 20l72 586h-31z" />
<glyph unicode="&#xc7;" horiz-adv-x="1067" d="M86 549q0 129 45 259t131 244.5t231.5 186.5t325.5 72q182 0 264 -74q-8 -58 -38 -58q-10 0 -23 7q-92 43 -211 43q-266 0 -437 -193.5t-171 -484.5q0 -217 115.5 -357.5t330.5 -140.5q100 0 187.5 26.5t134.5 57.5l4 -4q0 -55 -33 -88q-106 -68 -278 -74l-60 -82 q121 -43 121 -143q0 -86 -76 -132t-170 -56q-14 2 -24.5 20.5t-8.5 30.5q-2 6 2.5 10t18.5 8q160 31 160 111q0 43 -48.5 62.5t-113.5 19.5v6l106 145q-231 14 -358 174t-127 404z" />
<glyph unicode="&#xc8;" horiz-adv-x="845" d="M94 43l137 948q14 104 33 262q37 20 88 27h455q0 -45 -29 -61q-29 -18 -129 -19h-287l-69 -502h455q-12 -51 -38 -65.5t-98 -14.5h-333l-72 -532q53 -18 252 -18q223 0 307 12l2 -4q-4 -23 -24.5 -48.5t-49.5 -31.5q-47 -8 -215 -8q-248 0 -360 22zM328 1516 q8 20 31.5 40.5t41.5 20.5h2q25 0 118 -53.5t149 -96.5q14 -10 13 -21q0 -7 -5 -15q-10 -14 -29 -29q-184 94 -311 133q-14 3 -14 11q1 5 4 10z" />
<glyph unicode="&#xc9;" horiz-adv-x="845" d="M94 43l137 948q14 104 33 262q37 20 88 27h455q0 -45 -29 -61q-29 -18 -129 -19h-287l-69 -502h455q-12 -51 -38 -65.5t-98 -14.5h-333l-72 -532q53 -18 252 -18q223 0 307 12l2 -4q-4 -23 -24.5 -48.5t-49.5 -31.5q-47 -8 -215 -8q-248 0 -360 22zM440 1393q-3 7 -3 12 q0 14 18 25q53 37 152.5 89t129.5 56q16 -8 38 -28.5t30 -37.5q2 -5 2 -9q0 -16 -25 -23q-182 -51 -317 -115q-17 11 -25 31z" />
<glyph unicode="&#xca;" horiz-adv-x="845" d="M94 43l137 948q14 104 33 262q37 20 88 27h455q0 -45 -29 -61q-29 -18 -129 -19h-287l-69 -502h455q-12 -51 -38 -65.5t-98 -14.5h-333l-72 -532q53 -18 252 -18q223 0 307 12l2 -4q-4 -23 -24.5 -48.5t-49.5 -31.5q-47 -8 -215 -8q-248 0 -360 22zM334 1384 q115 98 207 191q12 10 26 20q18 4 31 4q66 -98 178 -204q-23 -33 -53 -33q-27 0 -35 12q-25 18 -119 121q-92 -86 -145 -119q-33 -14 -41 -14h-2q-24 -1 -47 22z" />
<glyph unicode="&#xcb;" horiz-adv-x="845" d="M94 43l137 948q14 104 33 262q37 20 88 27h455q0 -45 -29 -61q-29 -18 -129 -19h-287l-69 -502h455q-12 -51 -38 -65.5t-98 -14.5h-333l-72 -532q53 -18 252 -18q223 0 307 12l2 -4q-4 -23 -24.5 -48.5t-49.5 -31.5q-47 -8 -215 -8q-248 0 -360 22zM330 1450 q0 31 22.5 55.5t57.5 24.5h2q29 0 48 -22.5t19 -53.5q0 -35 -22.5 -58.5t-55.5 -23.5q-31 0 -51 20.5t-20 57.5zM645 1448q0 31 22.5 56.5t55.5 25.5h2q29 0 49.5 -21.5t20.5 -52.5q0 -39 -21.5 -61.5t-56.5 -22.5q-31 0 -51.5 20.5t-20.5 55.5z" />
<glyph unicode="&#xcc;" horiz-adv-x="425" d="M90 25l141 981q12 90 33 266q43 14 86 14q8 0 12.5 -3t5.5 -15.5t-1 -35t-9 -63.5l-131 -915q-27 -180 -32 -254q-35 -12 -82 -12q-24 0 -24 25q0 5 1 12zM92 1516q8 20 31.5 40.5t42.5 20.5h2q25 0 118 -53.5t148 -96.5q14 -10 14 -21q0 -7 -6 -15q-10 -14 -28 -29 q-184 94 -312 133q-14 3 -13 11q0 5 3 10z" />
<glyph unicode="&#xcd;" horiz-adv-x="425" d="M90 25l141 981q12 90 33 266q43 14 86 14q8 0 12.5 -3t5.5 -15.5t-1 -35t-9 -63.5l-131 -915q-27 -180 -32 -254q-35 -12 -82 -12q-24 0 -24 25q0 5 1 12zM229 1393q-3 7 -3 12q0 14 18 25q53 37 152.5 89t129.5 56q16 -8 38 -28.5t30 -37.5q2 -5 2 -9q0 -16 -25 -23 q-182 -51 -317 -115q-17 11 -25 31z" />
<glyph unicode="&#xce;" horiz-adv-x="425" d="M90 25l141 981q12 90 33 266q43 14 86 14q8 0 12.5 -3t5.5 -15.5t-1 -35t-9 -63.5l-131 -915q-27 -180 -32 -254q-35 -12 -82 -12q-24 0 -24 25q0 5 1 12zM98 1384q115 98 207 191q10 10 27 20q18 4 30 4q66 -98 179 -204q-23 -33 -54 -33q-25 0 -34 12q-25 18 -119 121 q-92 -86 -146 -119q-33 -14 -41 -14h-2q-24 -1 -47 22z" />
<glyph unicode="&#xcf;" horiz-adv-x="425" d="M90 25l141 981q12 90 33 266q43 14 86 14q8 0 12.5 -3t5.5 -15.5t-1 -35t-9 -63.5l-131 -915q-27 -180 -32 -254q-35 -12 -82 -12q-24 0 -24 25q0 5 1 12zM100 1440q0 31 22.5 55.5t57.5 24.5h2q29 0 48.5 -22.5t19.5 -53.5q0 -35 -22.5 -58.5t-55.5 -23.5 q-31 0 -51.5 20.5t-20.5 57.5zM416 1438q0 31 22.5 56.5t55.5 25.5h2q29 0 49 -21.5t20 -52.5q0 -39 -21.5 -61.5t-56.5 -22.5q-31 0 -51 20.5t-20 55.5z" />
<glyph unicode="&#xd0;" horiz-adv-x="1257" d="M35 618q18 80 102 80h82q6 37 15.5 101.5t11.5 72.5l47 324q-14 -2 -38 -5t-38 -7l-2 2q4 39 29 71q117 33 288 33q319 0 488 -149q166 -148 166 -454q0 -223 -102 -387q-99 -161 -262 -240.5t-365 -79.5q-160 0 -340 53q47 287 90 585h-172zM236 86q96 -31 221 -31 t233.5 38t195.5 112t137 194.5t50 276.5q0 539 -561 538q-59 0 -115 -6l-73 -510h356q-18 -80 -111 -80h-258z" />
<glyph unicode="&#xd1;" horiz-adv-x="1265" d="M86 -12l170 1153q6 33 -8 55l-41 68v10q45 12 78 12q14 0 37 -31q23 -35 85 -139l167 -283l169 -284q190 -317 230 -393q31 274 61 499l80 578q4 43 39 47q49 6 61 6q-129 -850 -180 -1290q-23 -23 -51 -23q-12 0 -33 35l-463 780l-159 279l-62 -479l-73 -539 q-6 -47 -37 -55q-31 -6 -70 -6zM541 1389q20 188 129 188h2q63 0 123 -72q49 -59 65 -59q33 0 47 108q4 23 21 23q27 0 49 -33q-6 -82 -37 -132t-82 -50q-12 0 -23.5 4t-18.5 7t-19.5 14.5t-17.5 16.5l-20 21l-22 23q-41 47 -67 47q-33 0 -58 -100q-4 -23 -16 -22.5 t-55 16.5z" />
<glyph unicode="&#xd2;" horiz-adv-x="1265" d="M90 530q0 195 71.5 370t220 293t343.5 118h2q158 0 267.5 -80t157.5 -203t48 -276q0 -115 -23.5 -225.5t-73.5 -212t-123 -178.5t-180.5 -122t-234.5 -45q-221 0 -348 151.5t-127 409.5zM207 522q0 -207 97 -342t280 -135q164 0 281.5 109.5t167.5 265t50 330.5 q0 207 -89 346t-285 139h-2q-217 0 -358.5 -214t-141.5 -499zM520 1528q8 20 31.5 40.5t42.5 20.5h2q25 0 118 -53t148 -96q14 -10 14 -22q0 -7 -6 -15q-10 -14 -28 -29q-184 94 -312 133q-14 3 -13 11q0 5 3 10z" />
<glyph unicode="&#xd3;" horiz-adv-x="1265" d="M90 530q0 195 71.5 370t220 293t343.5 118h2q158 0 267.5 -80t157.5 -203t48 -276q0 -115 -23.5 -225.5t-73.5 -212t-123 -178.5t-180.5 -122t-234.5 -45q-221 0 -348 151.5t-127 409.5zM207 522q0 -207 97 -342t280 -135q164 0 281.5 109.5t167.5 265t50 330.5 q0 207 -89 346t-285 139h-2q-217 0 -358.5 -214t-141.5 -499zM612 1417q-3 7 -3 13q0 14 18 24q53 37 152.5 89t129.5 56q16 -8 38 -28.5t30 -36.5q2 -5 2 -9q0 -16 -25 -24q-182 -51 -317 -115q-17 11 -25 31z" />
<glyph unicode="&#xd4;" horiz-adv-x="1265" d="M90 530q0 195 71.5 370t220 293t343.5 118h2q158 0 267.5 -80t157.5 -203t48 -276q0 -115 -23.5 -225.5t-73.5 -212t-123 -178.5t-180.5 -122t-234.5 -45q-221 0 -348 151.5t-127 409.5zM207 522q0 -207 97 -342t280 -135q164 0 281.5 109.5t167.5 265t50 330.5 q0 207 -89 346t-285 139h-2q-217 0 -358.5 -214t-141.5 -499zM512 1415q115 98 207 191q10 12 26 20q18 4 31 4q66 -98 178 -205q-23 -33 -53 -32q-25 0 -35 12q-25 18 -118 121q-92 -86 -146 -119q-33 -14 -41 -14h-2q-24 -1 -47 22z" />
<glyph unicode="&#xd5;" horiz-adv-x="1265" d="M90 530q0 195 71.5 370t220 293t343.5 118h2q158 0 267.5 -80t157.5 -203t48 -276q0 -115 -23.5 -225.5t-73.5 -212t-123 -178.5t-180.5 -122t-234.5 -45q-221 0 -348 151.5t-127 409.5zM207 522q0 -207 97 -342t280 -135q164 0 281.5 109.5t167.5 265t50 330.5 q0 207 -89 346t-285 139h-2q-217 0 -358.5 -214t-141.5 -499zM528 1419q20 188 129 189h2q63 0 123 -72q49 -59 66 -59q33 0 47 108q4 23 20 23q27 0 50 -33q-6 -82 -37 -132t-82 -50q-12 0 -23.5 4t-18.5 7t-19.5 14.5t-17.5 16.5l-20 21l-22 23q-41 47 -68 47 q-33 0 -57 -101q-4 -23 -16.5 -22.5t-55.5 16.5z" />
<glyph unicode="&#xd6;" horiz-adv-x="1265" d="M90 530q0 195 71.5 370t220 293t343.5 118h2q158 0 267.5 -80t157.5 -203t48 -276q0 -115 -23.5 -225.5t-73.5 -212t-123 -178.5t-180.5 -122t-234.5 -45q-221 0 -348 151.5t-127 409.5zM207 522q0 -207 97 -342t280 -135q164 0 281.5 109.5t167.5 265t50 330.5 q0 207 -89 346t-285 139h-2q-217 0 -358.5 -214t-141.5 -499zM514 1470q0 31 22.5 55.5t57.5 24.5h2q29 0 48.5 -22.5t19.5 -52.5q0 -35 -22.5 -58.5t-55.5 -23.5q-31 0 -51.5 20t-20.5 57zM829 1468q0 31 23 56.5t55 25.5h2q29 0 49.5 -21.5t20.5 -51.5q0 -39 -21.5 -61.5 t-56.5 -22.5q-31 0 -51.5 20t-20.5 55z" />
<glyph unicode="&#xd7;" horiz-adv-x="1157" d="M174 111q-2 6 -2 13q0 17 14 36l322 336l-332 344q-8 8 -8 20.5t8 30.5q14 25 35 35l358 -369l328 340q21 22 39 22q11 0 20 -8q14 -10 35 -37l-362 -376l332 -348q20 -18 4 -48q-12 -20 -41 -43l-359 377l-354 -377q-17 11 -37 52z" />
<glyph unicode="&#xd8;" horiz-adv-x="1265" d="M84 -35l121 170q-115 150 -115 410q0 197 76 371t223.5 284.5t333.5 110.5q170 0 272 -82l76 106q19 30 35 30q7 0 14 -5q35 -31 39 -49l-98 -142q139 -147 139 -428q0 -145 -40 -280t-115.5 -247t-198.5 -178.5t-277 -66.5q-184 0 -303 107l-106 -146q-13 -16 -26 -16 l-15 6q-25 20 -35 45zM201 557q0 -215 69 -334l672 934q-88 78 -231 78q-215 0 -362.5 -205t-147.5 -473zM322 156q92 -111 251 -111q131 0 233.5 65.5t162 171t89 225.5t29.5 245q0 225 -86 340z" />
<glyph unicode="&#xd9;" horiz-adv-x="1269" d="M164 647l45 354q10 78 23.5 165t15.5 104q39 16 80 16q15 0 15 -28q0 -25 -7 -95l-68 -528q-12 -93 -12 -171q0 -413 338 -413q90 0 152.5 21.5t123 87t103.5 201t69 346.5l68 512q8 57 35 63q53 4 67 4l-20 -166q-16 -133 -33 -248l-37 -258q-49 -354 -181 -499.5 t-359 -145.5q-246 0 -355 160q-77 113 -76 325q0 88 13 193zM528 1516q8 20 32 40.5t42 20.5h2q25 0 118 -53.5t148 -96.5q14 -10 14 -21q0 -7 -5 -15q-10 -14 -29 -29q-184 94 -311 133q-14 3 -14 11q0 5 3 10z" />
<glyph unicode="&#xda;" horiz-adv-x="1269" d="M164 647l45 354q10 78 23.5 165t15.5 104q39 16 80 16q15 0 15 -28q0 -25 -7 -95l-68 -528q-12 -93 -12 -171q0 -413 338 -413q90 0 152.5 21.5t123 87t103.5 201t69 346.5l68 512q8 57 35 63q53 4 67 4l-20 -166q-16 -133 -33 -248l-37 -258q-49 -354 -181 -499.5 t-359 -145.5q-246 0 -355 160q-77 113 -76 325q0 88 13 193zM600 1393q-3 7 -3 12q0 14 17 25q53 37 152.5 89t130.5 56q16 -8 37.5 -28.5t30.5 -37.5q2 -5 1 -9q0 -16 -24 -23q-182 -51 -317 -115q-17 11 -25 31z" />
<glyph unicode="&#xdb;" horiz-adv-x="1269" d="M164 647l45 354q10 78 23.5 165t15.5 104q39 16 80 16q15 0 15 -28q0 -25 -7 -95l-68 -528q-12 -93 -12 -171q0 -413 338 -413q90 0 152.5 21.5t123 87t103.5 201t69 346.5l68 512q8 57 35 63q53 4 67 4l-20 -166q-16 -133 -33 -248l-37 -258q-49 -354 -181 -499.5 t-359 -145.5q-246 0 -355 160q-77 113 -76 325q0 88 13 193zM520 1384q115 98 207 191q10 10 27 20q18 4 30 4q66 -98 179 -204q-23 -33 -54 -33q-25 0 -35 12q-25 18 -118 121q-92 -86 -146 -119q-33 -14 -41 -14h-2q-24 -1 -47 22z" />
<glyph unicode="&#xdc;" horiz-adv-x="1269" d="M164 647l45 354q10 78 23.5 165t15.5 104q39 16 80 16q15 0 15 -28q0 -25 -7 -95l-68 -528q-12 -93 -12 -171q0 -413 338 -413q90 0 152.5 21.5t123 87t103.5 201t69 346.5l68 512q8 57 35 63q53 4 67 4l-20 -166q-16 -133 -33 -248l-37 -258q-49 -354 -181 -499.5 t-359 -145.5q-246 0 -355 160q-77 113 -76 325q0 88 13 193zM518 1440q0 31 22.5 55.5t57.5 24.5h2q29 0 48.5 -22.5t19.5 -53.5q0 -35 -22.5 -58.5t-55.5 -23.5q-31 0 -51.5 20.5t-20.5 57.5zM834 1438q0 31 22.5 56.5t54.5 25.5h2q29 0 49.5 -21.5t20.5 -52.5 q0 -39 -21.5 -61.5t-56.5 -22.5q-31 0 -51 20.5t-20 55.5z" />
<glyph unicode="&#xdd;" horiz-adv-x="1077" d="M127 1264l2 6q49 16 84 16q23 0 68 -90l120 -231l148 -287q49 53 260 323.5t223 284.5q31 -2 64 -14q15 -5 14 -18q0 -15 -23 -42l-258 -314l-235 -294q-12 -14 -21 -69l-32 -281q-27 -223 -29 -254q-41 -12 -88 -12q-14 0 -17.5 7t-0.5 30l59 473q2 23 4 54.5t2 39.5 q0 33 -25 78q-206 410 -319 594zM514 1393q-3 7 -3 12q0 14 17 25q53 37 152.5 89t130.5 56q16 -8 37.5 -28.5t30.5 -37.5q2 -5 1 -9q0 -16 -24 -23q-182 -51 -317 -115q-17 11 -25 31z" />
<glyph unicode="&#xde;" horiz-adv-x="915" d="M92 27l135 979q2 12 8.5 54t12.5 96t14 114q43 16 80 16q18 0 20.5 -14.5t-4.5 -65.5l-26 -186q115 8 129 8q197 0 295 -99.5t98 -260.5q0 -102 -35 -181t-84 -122t-111.5 -71t-108.5 -36t-83 -8q-82 0 -106 18q-29 27 -25 66q39 -12 102 -12q41 0 89.5 12t109 44 t100 106.5t39.5 181.5q0 137 -77.5 211.5t-227.5 72.5q-59 0 -114 -10l-91 -686q-33 -250 -32 -254q-74 -12 -90 -12q-21 0 -17 39z" />
<glyph unicode="&#xdf;" horiz-adv-x="1003" d="M-276 -334q51 -37 135 -37q115 0 167 129t99 486l70 549h-150q0 27 15.5 50t39.5 25h105q14 80 29.5 141.5t50 140.5t80 130t119 88t165.5 37q129 0 200 -78t71 -192q0 -68 -19 -105q-279 -150 -278 -323q0 -33 20.5 -68t43.5 -59l77 -78q119 -121 119 -230 q0 -145 -92.5 -221t-225.5 -76q-80 0 -151.5 33t-81.5 60q-6 13 -6 27q0 19 10 42q6 10 22 2q102 -78 220 -78q90 0 145 49.5t55 139.5q0 92 -119 209q-137 129 -137 231.5t85 198.5t206 172q8 37 8 84q0 78 -50 131t-130 53q-147 0 -232 -131t-120 -420q-39 -326 -90 -690 q-16 -115 -37 -201t-58.5 -167.5t-98 -126t-142.5 -44.5q-113 0 -142 50q-9 14 -8 30q0 24 11 37z" />
<glyph unicode="&#xe0;" horiz-adv-x="954" d="M49 233q0 135 55.5 286t163.5 255q150 139 365 139q76 0 227 -36q-51 -221 -94 -592q-23 -162 -23 -287q-49 -23 -88 -23q-6 0 -6 36t5 101.5t16 143.5q0 6 8 56t10 73q-104 -205 -232 -307.5t-245 -102.5q-70 0 -116 63.5t-46 192.5v2zM160 229q0 -74 23.5 -118.5 t68.5 -44.5h2q131 0 282.5 198.5t196.5 456.5q16 66 17 92q-59 23 -132 23q-201 0 -315 -148q-143 -185 -143 -459zM446 1313q-8 10 -8 18.5t8 16.5q41 37 64 36h2q16 -2 78.5 -105t93.5 -171q6 -15 6 -26q0 -13 -8 -19t-15.5 -12.5t-11.5 -10.5t-6 -4q-94 152 -203 277z " />
<glyph unicode="&#xe1;" horiz-adv-x="954" d="M49 233q0 135 55.5 286t163.5 255q150 139 365 139q76 0 227 -36q-51 -221 -94 -592q-23 -162 -23 -287q-49 -23 -88 -23q-6 0 -6 36t5 101.5t16 143.5q0 6 8 56t10 73q-104 -205 -232 -307.5t-245 -102.5q-70 0 -116 63.5t-46 192.5v2zM160 229q0 -74 23.5 -118.5 t68.5 -44.5h2q131 0 282.5 198.5t196.5 456.5q16 66 17 92q-59 23 -132 23q-201 0 -315 -148q-143 -185 -143 -459zM532 1063q-3 3 -3 10q0 14 14 43q39 78 97 171t73 93h2q37 0 65 -37q6 -6 6 -13q0 -11 -14 -25q-68 -76 -203 -275q-14 6 -37 33z" />
<glyph unicode="&#xe2;" horiz-adv-x="954" d="M49 233q0 135 55.5 286t163.5 255q150 139 365 139q76 0 227 -36q-51 -221 -94 -592q-23 -162 -23 -287q-49 -23 -88 -23q-6 0 -6 36t5 101.5t16 143.5q0 6 8 56t10 73q-104 -205 -232 -307.5t-245 -102.5q-70 0 -116 63.5t-46 192.5v2zM160 229q0 -74 23.5 -118.5 t68.5 -44.5h2q131 0 282.5 198.5t196.5 456.5q16 66 17 92q-59 23 -132 23q-201 0 -315 -148q-143 -185 -143 -459zM381 1059l81 127q60 94 91 149q16 27 37 33q33 8 39 8l139 -319q-33 -27 -55 -27q-14 0 -25 21q-8 14 -96 213l-139 -226q-8 -8 -17 -8h-2q-12 0 -30.5 9.5 t-22.5 19.5z" />
<glyph unicode="&#xe3;" horiz-adv-x="954" d="M49 233q0 135 55.5 286t163.5 255q150 139 365 139q76 0 227 -36q-51 -221 -94 -592q-23 -162 -23 -287q-49 -23 -88 -23q-6 0 -6 36t5 101.5t16 143.5q0 6 8 56t10 73q-104 -205 -232 -307.5t-245 -102.5q-70 0 -116 63.5t-46 192.5v2zM160 229q0 -74 23.5 -118.5 t68.5 -44.5h2q131 0 282.5 198.5t196.5 456.5q16 66 17 92q-59 23 -132 23q-201 0 -315 -148q-143 -185 -143 -459zM383 1098q6 72 36 127t91 55h2q55 0 117 -70q45 -55 61 -55q33 0 43 102q6 23 23 23q27 0 49 -31q-4 -82 -34 -131t-81 -49q-12 0 -22.5 3t-18.5 7 t-19.5 14.5t-17.5 15.5t-20 21.5t-21 22.5q-39 45 -61 45q-35 0 -55 -96q-4 -20 -16.5 -20t-55.5 16z" />
<glyph unicode="&#xe4;" horiz-adv-x="954" d="M49 233q0 135 55.5 286t163.5 255q150 139 365 139q76 0 227 -36q-51 -221 -94 -592q-23 -162 -23 -287q-49 -23 -88 -23q-6 0 -6 36t5 101.5t16 143.5q0 6 8 56t10 73q-104 -205 -232 -307.5t-245 -102.5q-70 0 -116 63.5t-46 192.5v2zM160 229q0 -74 23.5 -118.5 t68.5 -44.5h2q131 0 282.5 198.5t196.5 456.5q16 66 17 92q-59 23 -132 23q-201 0 -315 -148q-143 -185 -143 -459zM356 1169q0 31 21.5 56.5t58.5 25.5h2q29 0 48.5 -21.5t19.5 -51.5q0 -35 -22.5 -58.5t-57.5 -23.5q-31 0 -50.5 20t-19.5 53zM664 1167q0 31 22.5 57.5 t56.5 26.5h2q31 0 49.5 -21.5t18.5 -51.5q0 -35 -22.5 -58.5t-55.5 -23.5q-31 0 -51 19t-20 52z" />
<glyph unicode="&#xe5;" horiz-adv-x="954" d="M49 233q0 135 55.5 286t163.5 255q150 139 365 139q76 0 227 -36q-51 -221 -94 -592q-23 -162 -23 -287q-49 -23 -88 -23q-6 0 -6 36t5 101.5t16 143.5q0 6 8 56t10 73q-104 -205 -232 -307.5t-245 -102.5q-70 0 -116 63.5t-46 192.5v2zM160 229q0 -74 23.5 -118.5 t68.5 -44.5h2q131 0 282.5 198.5t196.5 456.5q16 66 17 92q-59 23 -132 23q-201 0 -315 -148q-143 -185 -143 -459zM444 1169.5q0 71.5 48.5 121.5t123.5 50h2q70 0 111 -43t41 -112q0 -76 -50 -123t-126 -47q-68 0 -109 41t-41 112.5zM526 1176q0 -88 76 -89q39 0 62.5 28 t23.5 65q0 92 -76 92h-2q-37 0 -60.5 -30.5t-23.5 -65.5z" />
<glyph unicode="&#xe6;" horiz-adv-x="1273" d="M39 170q0 127 69.5 269.5t192.5 244.5q215 172 559 193q80 37 172 36q84 0 132 -49t48 -125q-2 -90 -62 -158.5t-151.5 -105.5t-179.5 -55.5t-164 -20.5q-4 -42 -3 -85q0 -29 1 -59q4 -75 51.5 -133.5t126.5 -58.5q170 0 320 164q18 -8 18 -45q0 -33 -28 -61 q-139 -145 -336 -146q-106 0 -171 64.5t-81 175.5h-4q-190 -238 -363 -238q-63 0 -105 47.5t-42 145.5zM150 182q0 -117 73 -116h2q63 0 151.5 66.5t168.5 199.5q12 164 86 298t141 167q-119 -12 -237.5 -65.5t-202.5 -137.5q-80 -80 -131 -194t-51 -218zM668 477 q442 29 442 260q0 45 -29.5 73t-76.5 28h-3q-100 0 -196 -102.5t-137 -258.5z" />
<glyph unicode="&#xe7;" horiz-adv-x="757" d="M53 291q0 240 140.5 431t361.5 191q45 0 89 -15t56 -36q-2 -27 -18 -42t-29 -9q-59 23 -112 23q-162 0 -271.5 -153t-109.5 -376q0 -115 46 -178.5t134 -63.5q150 0 287 144q20 -12 20 -41q0 -25 -24 -49q-92 -98 -224 -129l-69 -97q121 -43 121 -141q0 -84 -76 -132 t-168 -58q-14 2 -25.5 20.5t-9.5 30.5q0 10 21 16q160 33 159 111q0 80 -162 84v4l113 151q-119 2 -184.5 85.5t-65.5 228.5z" />
<glyph unicode="&#xe8;" horiz-adv-x="788" d="M57 301q0 227 129 419.5t344 192.5h2q82 0 133.5 -44t51.5 -119q0 -84 -52.5 -149.5t-137.5 -104.5t-176 -59.5t-185 -24.5q-6 -33 -6 -99q0 -115 46 -183.5t138 -68.5q170 0 305 162q20 -6 21 -41q0 -33 -29 -65q-121 -141 -326 -142q-258 0 -258 326zM178 485 q227 14 335 85t108 169q0 47 -31 74t-80 27h-2q-123 0 -210 -105t-120 -250zM350 1313q-8 10 -8 18.5t8 16.5q41 37 64 36h2q16 -2 78.5 -105t93.5 -171q6 -15 5 -26q0 -13 -7 -19q-8 -6 -15.5 -12.5t-11.5 -10.5t-6 -4q-94 152 -203 277z" />
<glyph unicode="&#xe9;" horiz-adv-x="788" d="M57 301q0 227 129 419.5t344 192.5h2q82 0 133.5 -44t51.5 -119q0 -84 -52.5 -149.5t-137.5 -104.5t-176 -59.5t-185 -24.5q-6 -33 -6 -99q0 -115 46 -183.5t138 -68.5q170 0 305 162q20 -6 21 -41q0 -33 -29 -65q-121 -141 -326 -142q-258 0 -258 326zM178 485 q227 14 335 85t108 169q0 47 -31 74t-80 27h-2q-123 0 -210 -105t-120 -250zM436 1063q-3 3 -3 10q0 14 13 43q39 78 97.5 171t72.5 93h2q37 0 66 -37q7 -7 7 -14q0 -11 -15 -24q-68 -76 -203 -275q-14 6 -37 33z" />
<glyph unicode="&#xea;" horiz-adv-x="788" d="M57 301q0 227 129 419.5t344 192.5h2q82 0 133.5 -44t51.5 -119q0 -84 -52.5 -149.5t-137.5 -104.5t-176 -59.5t-185 -24.5q-6 -33 -6 -99q0 -115 46 -183.5t138 -68.5q170 0 305 162q20 -6 21 -41q0 -33 -29 -65q-121 -141 -326 -142q-258 0 -258 326zM178 485 q227 14 335 85t108 169q0 47 -31 74t-80 27h-2q-123 0 -210 -105t-120 -250zM291 1059l81 127q60 94 91 149q16 27 37 33q33 8 39 8l139 -319q-33 -27 -55 -27q-14 0 -25 21q-8 14 -96 213l-140 -226q-8 -8 -16 -8h-2q-12 0 -30.5 9.5t-22.5 19.5z" />
<glyph unicode="&#xeb;" horiz-adv-x="788" d="M57 301q0 227 129 419.5t344 192.5h2q82 0 133.5 -44t51.5 -119q0 -84 -52.5 -149.5t-137.5 -104.5t-176 -59.5t-185 -24.5q-6 -33 -6 -99q0 -115 46 -183.5t138 -68.5q170 0 305 162q20 -6 21 -41q0 -33 -29 -65q-121 -141 -326 -142q-258 0 -258 326zM178 485 q227 14 335 85t108 169q0 47 -31 74t-80 27h-2q-123 0 -210 -105t-120 -250zM272 1169q0 31 21.5 56.5t58.5 25.5h2q29 0 48.5 -21.5t19.5 -51.5q0 -35 -22.5 -58.5t-57.5 -23.5q-31 0 -50.5 20t-19.5 53zM580 1167q0 31 22.5 57.5t56.5 26.5h3q31 0 49 -21.5t18 -51.5 q0 -35 -22.5 -58.5t-55.5 -23.5q-31 0 -51 19t-20 52z" />
<glyph unicode="&#xec;" horiz-adv-x="403" d="M76 -16q31 201 74 516q43 328 45 389q53 25 84 24h2q18 0 12 -47l-109 -803q-4 -45 -24 -57q-43 -18 -84 -22zM94 1313q-8 10 -8 18.5t8 16.5q41 37 64 36h2q16 -2 78.5 -105t93.5 -171q6 -15 5 -26q0 -13 -7 -19q-8 -6 -15.5 -12.5t-11.5 -10.5t-6 -4q-94 152 -203 277z " />
<glyph unicode="&#xed;" horiz-adv-x="403" d="M76 -16q31 201 74 516q43 328 45 389q53 25 84 24h2q18 0 12 -47l-109 -803q-4 -45 -24 -57q-43 -18 -84 -22zM211 1063q-3 3 -3 10q0 14 13 43q39 78 97.5 171t72.5 93h2q37 0 66 -37q7 -7 6 -14q0 -11 -14 -24q-68 -76 -203 -275q-14 6 -37 33z" />
<glyph unicode="&#xee;" horiz-adv-x="403" d="M72 1059l81 127q60 94 91 149q16 27 37 33q33 8 38 8q20 -53 140 -319q-33 -27 -56 -27q-14 0 -24 21q-8 14 -96 213l-140 -226q-8 -8 -16 -8h-2q-12 0 -30.5 9.5t-22.5 19.5zM76 -16q31 201 74 516q43 328 45 389q53 25 84 24h2q14 0 13 -26q0 -9 -1 -21l-109 -803 q-4 -45 -24 -57q-43 -18 -84 -22z" />
<glyph unicode="&#xef;" horiz-adv-x="403" d="M35 1169q0 31 21.5 56.5t58.5 25.5h2q29 0 48 -21.5t19 -51.5q0 -35 -22.5 -58.5t-57.5 -23.5q-31 0 -50 20t-19 53zM76 -16q31 201 74 516q43 328 45 389q53 25 84 24h2q18 0 12 -47l-109 -803q-4 -45 -24 -57q-43 -18 -84 -22zM342 1167q0 31 22.5 57.5t57.5 26.5h2 q31 0 49.5 -21.5t18.5 -51.5q0 -35 -23 -58.5t-55 -23.5q-31 0 -51.5 19t-20.5 52z" />
<glyph unicode="&#xf0;" horiz-adv-x="876" d="M59 324q2 139 54.5 271t162 225t250.5 93q96 0 162 -51q-4 45 -39 134t-71 132l-209 -122q-18 -12 -29.5 -9.5t-9.5 21.5q0 31 10 51l197 117q-33 41 -115 88t-146 63l-2 4l21 29q18 23 47 23q33 -2 123 -51.5t149 -110.5l162 102q33 20 33 -6q1 -7 1 -14q0 -25 -11 -47 l-144 -90q152 -209 152 -508q0 -88 -14.5 -177.5t-48 -184.5t-85 -166.5t-134.5 -118t-187 -46.5q-145 0 -212 101t-67 248zM170 324q0 -125 48 -199t145 -74h2q35 0 75.5 15.5t87.5 59.5t85 109.5t63.5 176t25.5 250.5q0 12 -1 39.5t-1 41.5q-18 41 -68 66t-106 25 q-158 0 -257 -154.5t-99 -355.5z" />
<glyph unicode="&#xf1;" horiz-adv-x="995" d="M68 -16q41 223 84 524q38 265 37 358q0 13 -1 23q33 25 91 24q5 0 5 -35q0 -28 -4 -87q-5 -72 -20 -179q-2 -27 -14 -104h6q94 180 223 292.5t242 112.5q37 0 62.5 -10t52 -44t28.5 -99v-20q0 -62 -10 -156l-22 -130l-27 -171q-35 -242 -35 -285q-45 -23 -96 -23 q-4 6 -4 31t8 96.5t24 167.5q2 16 23.5 139t32.5 205q10 47 9 86q0 35 -7 63q-16 60 -78 60q-55 0 -126 -49t-143.5 -137t-135 -235.5t-91.5 -323.5q-8 -39 -15 -53.5t-24 -22.5q-28 -16 -75 -18zM346 1098q6 72 36 127t91 55h2q55 0 117 -70q45 -55 61 -55q33 0 43 102 q6 23 23 23q27 0 49 -31q-4 -82 -33.5 -131t-81.5 -49q-12 0 -22 3t-18.5 7t-19.5 14.5t-17.5 15.5t-20.5 21.5t-20 22.5q-39 45 -62 45q-35 0 -55 -96q-4 -20 -16.5 -20t-55.5 16z" />
<glyph unicode="&#xf2;" horiz-adv-x="913" d="M57 317q0 135 52.5 268.5t164 230.5t254.5 97h2q147 0 217 -94t70 -248q0 -248 -135 -422t-330 -174q-295 0 -295 342zM170 309q0 -137 55.5 -197.5t139.5 -60.5q129 0 234.5 145.5t105.5 389.5q0 104 -44.5 178t-144.5 74h-2q-137 0 -240.5 -157t-103.5 -372zM395 1313 q-8 10 -8 18.5t8 16.5q41 37 64 36h2q16 -2 78.5 -105t93.5 -171q6 -15 6 -26q0 -13 -8 -19t-15.5 -12.5t-11.5 -10.5t-6 -4q-94 152 -203 277z" />
<glyph unicode="&#xf3;" horiz-adv-x="913" d="M57 317q0 135 52.5 268.5t164 230.5t254.5 97h2q147 0 217 -94t70 -248q0 -248 -135 -422t-330 -174q-295 0 -295 342zM170 309q0 -137 55.5 -197.5t139.5 -60.5q129 0 234.5 145.5t105.5 389.5q0 104 -44.5 178t-144.5 74h-2q-137 0 -240.5 -157t-103.5 -372zM467 1063 q-3 3 -3 10q0 14 13 43q39 78 97.5 171t72.5 93h2q37 0 66 -37q6 -6 5 -13q0 -11 -13 -25q-68 -76 -203 -275q-14 6 -37 33z" />
<glyph unicode="&#xf4;" horiz-adv-x="913" d="M57 317q0 135 52.5 268.5t164 230.5t254.5 97h2q147 0 217 -94t70 -248q0 -248 -135 -422t-330 -174q-295 0 -295 342zM170 309q0 -137 55.5 -197.5t139.5 -60.5q129 0 234.5 145.5t105.5 389.5q0 104 -44.5 178t-144.5 74h-2q-137 0 -240.5 -157t-103.5 -372zM336 1059 l81 127q60 94 91 149q16 27 37 33q33 8 39 8l139 -319q-33 -27 -55 -27q-14 0 -25 21q-8 14 -96 213l-139 -226q-8 -8 -17 -8h-2q-12 0 -30.5 9.5t-22.5 19.5z" />
<glyph unicode="&#xf5;" horiz-adv-x="913" d="M57 317q0 135 52.5 268.5t164 230.5t254.5 97h2q147 0 217 -94t70 -248q0 -248 -135 -422t-330 -174q-295 0 -295 342zM170 309q0 -137 55.5 -197.5t139.5 -60.5q129 0 234.5 145.5t105.5 389.5q0 104 -44.5 178t-144.5 74h-2q-137 0 -240.5 -157t-103.5 -372zM326 1098 q6 72 35.5 127t91.5 55h2q55 0 116 -70q45 -55 62 -55q33 0 43 102q6 23 22 23q27 0 50 -31q-4 -82 -34 -131t-81 -49q-12 0 -22.5 3t-18.5 7t-19.5 14.5t-17.5 15.5t-20.5 21.5t-20.5 22.5q-39 45 -61 45q-35 0 -56 -96q-4 -20 -16 -20t-55 16z" />
<glyph unicode="&#xf6;" horiz-adv-x="913" d="M57 317q0 135 52.5 268.5t164 230.5t254.5 97h2q147 0 217 -94t70 -248q0 -248 -135 -422t-330 -174q-295 0 -295 342zM170 309q0 -137 55.5 -197.5t139.5 -60.5q129 0 234.5 145.5t105.5 389.5q0 104 -44.5 178t-144.5 74h-2q-137 0 -240.5 -157t-103.5 -372zM317 1169 q0 31 21.5 56.5t58.5 25.5h2q29 0 48.5 -21.5t19.5 -51.5q0 -35 -22.5 -58.5t-57.5 -23.5q-31 0 -50.5 20t-19.5 53zM625 1167q0 31 22.5 57.5t57.5 26.5h2q31 0 49 -21.5t18 -51.5q0 -35 -22.5 -58.5t-55.5 -23.5q-31 0 -51 19t-20 52z" />
<glyph unicode="&#xf7;" horiz-adv-x="1157" d="M123 461q4 82 59 82h844q-2 -45 -16.5 -63.5t-51.5 -18.5h-835zM494 797q0 33 23.5 57.5t53.5 24.5q35 0 58.5 -24t23.5 -58q0 -33 -24.5 -56.5t-59.5 -23.5h-2q-27 0 -50 24.5t-23 55.5zM494 207q0 33 22.5 56.5t54.5 23.5h2q31 0 53.5 -24.5t22.5 -55.5 q0 -33 -23.5 -57.5t-54.5 -24.5q-33 0 -55 24.5t-22 57.5z" />
<glyph unicode="&#xf8;" horiz-adv-x="899" d="M37 -31l86 119q-66 88 -66 256q0 133 56.5 262t167 218t245.5 89q96 0 154 -47l47 70q24 38 40 38q6 0 11 -5q27 -27 27 -56l-70 -104q72 -92 72 -268q0 -237 -127 -400q-129 -166 -328 -166q-109 0 -180 56l-68 -94q-18 -21 -31 -21q-6 0 -12 4q-16 12 -24 49zM164 393 q-4 -30 -4 -58q0 -81 30 -153l439 611q-37 45 -113 45q-92 0 -172 -66.5t-123 -165t-57 -213.5zM231 109q39 -57 134 -58q96 0 176 69.5t117.5 172t47.5 218.5q2 20 1 40q0 92 -35 170z" />
<glyph unicode="&#xf9;" horiz-adv-x="978" d="M119 309q20 131 49 285q25 154 39 293q49 27 90 26q11 0 11 -29q0 -15 -3 -36q-63 -381 -92 -578q-6 -40 -6 -72q0 -54 17 -85q28 -49 81 -50q49 0 109.5 35t130 111t131 226.5t96.5 350.5q14 94 41 109q39 18 78 18q-68 -313 -103 -628q-20 -146 -19 -242q0 -24 1 -45 q-49 -23 -86 -23q-6 0 -7 39v12q0 39 5 109q6 82 18 184l-4 3q-180 -346 -430 -347q-104 0 -138 94q-20 54 -20 126q1 52 11 114zM403 1313q-8 10 -8 18.5t8 16.5q41 37 64 36h2q16 -2 78.5 -105t93.5 -171q6 -15 6 -26q0 -13 -8 -19t-15.5 -12.5t-11.5 -10.5t-6 -4 q-94 152 -203 277z" />
<glyph unicode="&#xfa;" horiz-adv-x="978" d="M119 309q20 131 49 285q25 154 39 293q49 27 90 26q11 0 11 -29q0 -15 -3 -36q-63 -381 -92 -578q-6 -40 -6 -72q0 -54 17 -85q28 -49 81 -50q49 0 109.5 35t130 111t131 226.5t96.5 350.5q14 94 41 109q39 18 78 18q-68 -313 -103 -628q-20 -146 -19 -242q0 -24 1 -45 q-49 -23 -86 -23q-6 0 -7 39v12q0 39 5 109q6 82 18 184l-4 3q-180 -346 -430 -347q-104 0 -138 94q-20 54 -20 126q1 52 11 114zM514 1063q-3 3 -3 10q0 14 13 43q39 78 97.5 171t72.5 93h2q37 0 66 -37q7 -7 6 -14q0 -11 -14 -24q-68 -76 -203 -275q-14 6 -37 33z" />
<glyph unicode="&#xfb;" horiz-adv-x="978" d="M119 309q20 131 49 285q25 154 39 293q49 27 90 26q11 0 11 -29q0 -15 -3 -36q-63 -381 -92 -578q-6 -40 -6 -72q0 -54 17 -85q28 -49 81 -50q49 0 109.5 35t130 111t131 226.5t96.5 350.5q14 94 41 109q39 18 78 18q-68 -313 -103 -628q-20 -146 -19 -242q0 -24 1 -45 q-49 -23 -86 -23q-6 0 -7 39v12q0 39 5 109q6 82 18 184l-4 3q-180 -346 -430 -347q-104 0 -138 94q-20 54 -20 126q1 52 11 114zM373 1059l81 127q60 94 91 149q16 27 37 33q33 8 39 8l139 -319q-33 -27 -55 -27q-14 0 -25 21q-8 14 -96 213l-140 -226q-8 -8 -16 -8h-2 q-12 0 -30.5 9.5t-22.5 19.5z" />
<glyph unicode="&#xfc;" horiz-adv-x="978" d="M119 309q20 131 49 285q25 154 39 293q49 27 90 26q11 0 11 -29q0 -15 -3 -36q-63 -381 -92 -578q-6 -40 -6 -72q0 -54 17 -85q28 -49 81 -50q49 0 109.5 35t130 111t131 226.5t96.5 350.5q14 94 41 109q39 18 78 18q-68 -313 -103 -628q-20 -146 -19 -242q0 -24 1 -45 q-49 -23 -86 -23q-6 0 -7 39v12q0 39 5 109q6 82 18 184l-4 3q-180 -346 -430 -347q-104 0 -138 94q-20 54 -20 126q1 52 11 114zM352 1169q0 31 21.5 56.5t58.5 25.5h2q29 0 48.5 -21.5t19.5 -51.5q0 -35 -22.5 -58.5t-57.5 -23.5q-31 0 -50.5 20t-19.5 53zM659 1167 q0 31 23 57.5t57 26.5h2q31 0 49.5 -21.5t18.5 -51.5q0 -35 -22.5 -58.5t-55.5 -23.5q-31 0 -51.5 19t-20.5 52z" />
<glyph unicode="&#xfd;" horiz-adv-x="817" d="M-92 -410q168 150 344 392q-23 49 -45 165q-78 414 -107 740q41 27 78 26q18 0 23 -36q33 -305 92 -660q18 -111 37 -141q172 242 262 462t96 361q29 14 68 14q16 0 16 -45q0 -113 -84 -324.5t-237 -445.5q-109 -164 -252.5 -332.5t-212.5 -226.5q-29 0 -55.5 19.5 t-22.5 31.5zM410 1063q-3 3 -4 10q0 14 14 43q39 78 97 171t73 93h2q37 0 65 -37q6 -6 6 -13q0 -11 -14 -25q-68 -76 -203 -275q-13 6 -36 33z" />
<glyph unicode="&#xfe;" horiz-adv-x="983" d="M-6 -451q100 551 231 1510q35 256 37 305q51 29 86 29q12 0 12 -34q0 -19 -4 -48q-8 -49 -53 -361l-59 -405h4q217 367 454 366q90 0 142.5 -75.5t52.5 -208.5q0 -270 -146.5 -461t-359.5 -191q-145 0 -219 86q-8 -57 -31.5 -201.5t-29.5 -191.5q-12 -74 -29 -94 q-25 -21 -88 -25zM188 150q82 -96 209 -97q172 0 280.5 161t108.5 417q0 188 -120 188h-2q-121 0 -272.5 -176t-194.5 -444q-2 -14 -5.5 -27.5t-3.5 -21.5z" />
<glyph unicode="&#xff;" horiz-adv-x="817" d="M-92 -410q168 150 344 392q-23 49 -45 165q-78 414 -107 740q41 27 78 26q18 0 23 -36q33 -305 92 -660q18 -111 37 -141q172 242 262 462t96 361q29 14 68 14q16 0 16 -45q0 -113 -84 -324.5t-237 -445.5q-109 -164 -252.5 -332.5t-212.5 -226.5q-29 0 -55.5 19.5 t-22.5 31.5zM233 1169q0 31 21.5 56.5t58.5 25.5h2q29 0 48.5 -21.5t19.5 -51.5q0 -35 -22.5 -58.5t-57.5 -23.5q-31 0 -50.5 20t-19.5 53zM541 1167q0 31 22.5 57.5t57.5 26.5h2q31 0 49 -21.5t18 -51.5q0 -35 -22.5 -58.5t-55.5 -23.5q-31 0 -51 19t-20 52z" />
<glyph unicode="&#x152;" horiz-adv-x="1689" d="M90 543q0 315 186.5 541.5t454.5 226.5q84 0 152.5 -20.5t109.5 -54.5t62.5 -61.5t36.5 -58.5l14 139q14 12 80 25h463q4 -41 -27 -59q-29 -20 -135 -21h-283l-63 -502h458q-20 -53 -44.5 -66.5t-96.5 -13.5h-325l-62 -532q57 -18 254 -18q225 0 309 12v-4 q-4 -23 -23.5 -48.5t-47.5 -31.5q-47 -8 -215 -8q-262 0 -361 20l-24 41l16 117q-160 -197 -432 -197q-231 0 -344 160t-113 414zM205 553q0 -100 18.5 -185t58.5 -161t115.5 -119t180.5 -43h2q160 0 270.5 89t140.5 208q10 39 37 252l10 94q24 186 24 265q0 30 -3 44 q-14 86 -96 162t-222 76q-238 0 -387 -208t-149 -474z" />
<glyph unicode="&#x153;" horiz-adv-x="1413" d="M57 336q0 217 131 397t336 180q104 0 174 -63.5t90 -185.5q53 96 152.5 172.5t216.5 76.5h2q84 0 138.5 -47t54.5 -125q0 -94 -61.5 -164.5t-159 -106.5t-179.5 -52.5t-161 -20.5q-4 -20 -4 -52q0 -21 1 -48q4 -106 53.5 -172t129.5 -66q100 0 173 41t146 123 q14 -8 15 -41q0 -43 -29 -67q-137 -139 -332 -140q-94 0 -158.5 59.5t-78.5 162.5q-125 -221 -353 -222q-297 1 -297 361zM170 336q0 -285 201 -285q119 0 225 135.5t106 358.5q0 70 -12 129t-58 111.5t-122 52.5h-2q-141 0 -239.5 -154.5t-98.5 -347.5zM805 475 q250 16 347 90t97 166q0 51 -30.5 78t-83.5 27h-2q-106 0 -199.5 -109t-128.5 -252z" />
<glyph unicode="&#x178;" horiz-adv-x="1077" d="M127 1264l2 6q49 16 84 16q23 0 68 -90l120 -231l148 -287q49 53 260 323.5t223 284.5q31 -2 64 -14q15 -5 14 -18q0 -15 -23 -42l-258 -314l-235 -294q-12 -14 -21 -69l-32 -281q-27 -223 -29 -254q-41 -12 -88 -12q-14 0 -17.5 7t-0.5 30l59 473q2 23 4 54.5t2 39.5 q0 33 -25 78q-206 410 -319 594zM406 1440q0 31 22.5 55.5t56.5 24.5h2q29 0 48.5 -22.5t19.5 -53.5q0 -35 -22.5 -58.5t-55.5 -23.5q-31 0 -51 20.5t-20 57.5zM721 1438q0 31 22.5 56.5t55.5 25.5h2q29 0 49 -21.5t20 -52.5q0 -39 -21.5 -61.5t-55.5 -22.5 q-31 0 -51.5 20.5t-20.5 55.5z" />
<glyph unicode="&#x2c6;" horiz-adv-x="819" d="M272 1059l81 127q60 94 91 149q16 27 37 33q33 8 39 8q20 -53 139 -319q-33 -27 -55 -27q-14 0 -24 21q-8 14 -97 213l-139 -226q-8 -8 -16 -8h-2q-12 0 -31 9.5t-23 19.5z" />
<glyph unicode="&#x2dc;" horiz-adv-x="819" d="M246 1098q6 72 35.5 127t91.5 55h2q55 0 117 -70q45 -55 61 -55q33 0 43 102q6 23 22 23q27 0 50 -31q-4 -82 -34 -131t-81 -49q-12 0 -22.5 3t-18.5 7t-19.5 14.5t-17.5 15.5t-20.5 21.5t-20.5 22.5q-39 45 -61 45q-35 0 -56 -96q-4 -20 -16 -20t-55 16z" />
<glyph unicode="&#x2013;" horiz-adv-x="1067" d="M63 457q2 10 6.5 25.5t6.5 19.5q16 35 47 35h840q-4 -31 -15 -54q-18 -27 -45 -26h-840z" />
<glyph unicode="&#x2014;" horiz-adv-x="1787" d="M61 457q4 33 17 55q12 25 47 25h1558q-2 -27 -10 -48q-10 -33 -49 -32h-1563z" />
<glyph unicode="&#x2018;" horiz-adv-x="276" d="M131 991q0 66 42 167.5t91 164.5q27 31 80 31l2 -4q-43 -76 -76.5 -180.5t-33.5 -174.5q-43 -39 -78 -39q-27 0 -27 35z" />
<glyph unicode="&#x2019;" horiz-adv-x="276" d="M96 950q41 74 75 178.5t36 174.5q43 39 80 38q23 0 22 -30q0 -66 -42 -169.5t-91 -166.5q-25 -31 -76 -31z" />
<glyph unicode="&#x201a;" horiz-adv-x="288" d="M-96 -207q61 70 103 172.5t40 175.5q45 37 80 37q29 0 29 -53q0 -15 -2 -33q-8 -72 -55.5 -154.5t-108.5 -130.5q-26 -21 -69 -21q-7 0 -15 1z" />
<glyph unicode="&#x201c;" horiz-adv-x="522" d="M131 995q0 64 41 162q43 102 94 166q23 31 78 31l2 -4q-43 -78 -75.5 -180.5t-32.5 -174.5q-49 -39 -78 -39t-29 39zM377 995q0 62 40 161q42 103 93 167q27 31 78 31l4 -4q-43 -76 -77 -180.5t-34 -174.5q-43 -39 -78 -39q-26 0 -26 39z" />
<glyph unicode="&#x201d;" horiz-adv-x="522" d="M100 952q43 76 76 180.5t33 172.5q43 39 82 38q23 0 22 -30q0 -72 -41 -172.5t-92 -163.5q-25 -31 -78 -31zM346 952q41 74 74 179.5t33 173.5q49 39 82 38q25 0 24 -30q0 -72 -41 -172.5t-94 -165.5q-23 -29 -78 -29v6z" />
<glyph unicode="&#x201e;" horiz-adv-x="546" d="M-98 -207q61 63 104 168t41 180q45 37 80 37q29 0 29 -61q0 -76 -50.5 -167t-115.5 -143q-28 -21 -71 -21q-7 0 -15 1zM158 -207q63 63 107 168t42 180q45 37 80 37q29 0 29 -61q0 -78 -50.5 -169t-115.5 -141q-32 -21 -75 -21q-7 0 -15 1z" />
<glyph unicode="&#x2022;" horiz-adv-x="522" d="M84 453q0 86 49 139t133 53h2q66 0 107 -49t41 -115q0 -84 -49.5 -136t-128.5 -52q-66 0 -110 44t-44 116z" />
<glyph unicode="&#x2026;" horiz-adv-x="1499" d="M82 51q0 43 23.5 69.5t64.5 26.5h2q31 0 49.5 -23.5t18.5 -55.5q0 -41 -22.5 -66t-61.5 -25q-33 0 -53.5 19.5t-20.5 54.5zM582 51q0 43 23.5 69.5t64.5 26.5h2q31 0 49 -23.5t18 -55.5q0 -41 -23.5 -66t-62.5 -25q-33 0 -52 20.5t-19 53.5zM1081 51q0 43 23.5 69.5 t64.5 26.5h2q33 0 50.5 -23.5t17.5 -55.5q0 -41 -23.5 -66t-60.5 -25q-33 0 -53.5 19.5t-20.5 54.5z" />
<glyph unicode="&#x2039;" horiz-adv-x="749" d="M86 479q197 182 348 387q39 -20 39 -58q0 -45 -278 -351q51 -68 124.5 -189t75.5 -155q2 -20 -15.5 -41t-31.5 -27q-84 188 -248 383q-14 20 -14 51z" />
<glyph unicode="&#x203a;" horiz-adv-x="749" d="M256 102q0 14 23.5 51t63.5 85l75 88l72 83q38 42 45 48q-49 61 -124 185t-77 157q-2 23 16.5 42t34.5 25q80 -188 246 -383q12 -20 12 -51q-201 -186 -344 -387q-39 24 -43 57z" />
<glyph unicode="&#x20ac;" d="M23 469q14 49 30.5 62.5t59.5 13.5h43q2 49 14 119h-92q16 53 30.5 64t57.5 11h20q47 199 177.5 346.5t316.5 147.5q78 0 136.5 -24.5t74.5 -57.5q-4 -25 -19.5 -38t-42.5 1q-63 43 -151 43q-133 0 -239.5 -106.5t-155.5 -311.5h475q-14 -51 -33.5 -63t-62.5 -12h-396 q-8 -66 -10 -119h426q-14 -53 -31.5 -64.5t-66.5 -11.5h-330q0 -418 311 -418q113 0 215 64l2 -6q-4 -43 -39 -78q-63 -55 -206 -56q-193 0 -286 133.5t-97 360.5h-131z" />
<glyph unicode="&#x2122;" horiz-adv-x="634" d="M117 1282q8 -2 67 -2h166q0 -27 -24 -39h-82v-170q0 -16 1 -33.5t1 -19.5l-35 -4q-12 0 -12 8v219h-90q-11 0 -11 9q0 2 19 32zM348 1018q10 41 49 237l-4 17q20 10 39 10q2 0 4 -3t8.5 -19.5t16.5 -34.5l65 -131l88 176v4q20 8 35 8q6 0 6 -14l27 -156l18 -94 q-16 -8 -41 -8q-12 0 -12 12t-4 36.5t-4 37.5l-18 114q-4 -8 -35 -75.5t-54 -112.5q-16 -4 -24 -4q-80 172 -84 184q-2 -6 -13.5 -79.5t-17.5 -100.5q0 -12 -8 -12q-17 0 -37 8z" />
<glyph unicode="&#xe000;" horiz-adv-x="930" d="M0 930h930v-930h-930v930z" />
<glyph unicode="&#xfb01;" horiz-adv-x="897" d="M-291 -368.5q0 26.5 12 36.5q61 -39 127 -39q119 0 166 100.5t97 413.5q23 147 84 650h-150q14 74 57 75h103q18 162 59 274.5t98.5 166t111.5 75t120 21.5q43 0 99.5 -20.5t66.5 -45.5q0 -23 -16.5 -42t-38.5 -5q-70 35 -119 35q-117 0 -187.5 -104.5t-101.5 -354.5h369 q29 0 67.5 13.5t40.5 13.5q6 0 9 -4q4 -6 5 -28q0 -11 -2 -27q-2 -25 -8 -66q-86 -590 -106 -702q-8 -45 -25 -62q-27 -25 -88 -29q74 430 127 816h-397q-49 -393 -99 -723q-43 -289 -122.5 -405t-223.5 -116q-74 0 -120 41q-15 15 -15 41.5z" />
<glyph unicode="&#xfb02;" horiz-adv-x="905" d="M-279 -330q63 -41 127 -41q115 0 164 104.5t97 413.5q39 250 88 648h-150q14 72 57 73h103q66 537 409 537q92 0 158 -51q55 49 74 49q14 0 14 -34q0 -21 -6 -56q-145 -954 -180 -1211q-12 -86 -35 -100q-39 -20 -80 -25q23 133 123 816h-393q-88 -643 -103 -734 q-43 -283 -124.5 -396.5t-219.5 -113.5q-84 0 -125 41q-13 14 -12 37q-1 31 14 43zM301 868h391q51 330 60 412q-66 49 -144 49q-133 0 -204.5 -111.5t-102.5 -349.5z" />
<glyph unicode="&#xfb03;" horiz-adv-x="1376" d="M-290 -358q5 20 18 24q53 -37 131 -37q115 0 162 116t96 458q45 309 78 590h-150q14 74 57 75h103q63 496 409 496q135 0 211 -74q82 111 250 115q53 0 103.5 -19.5t58.5 -35.5q0 -18 -15.5 -39t-37.5 -11q-70 29 -115 29q-119 0 -191.5 -100.5t-103.5 -360.5h369 q29 0 68.5 13.5t41.5 13.5q12 0 13 -38q0 -31 -9 -87q-78 -530 -108 -702q-8 -45 -25 -62q-29 -25 -88 -29q74 430 127 816h-395q-35 -281 -86 -643q-45 -324 -141.5 -442t-270.5 -118q-121 0 -204 70q-76 -111 -205 -111q-61 0 -102.5 19.5t-47.5 38.5q-3 8 -3 17t2 18z M100 -276q66 -59 176 -60q150 0 216.5 124t107.5 439q59 440 72 566h-383q-55 -444 -96 -709q-14 -104 -42 -212.5t-51 -147.5zM301 868h381q33 244 102 363q-66 61 -178 61q-258 0 -305 -424z" />
<glyph unicode="&#xfb04;" horiz-adv-x="1384" d="M-285 -393q-6 18 -6 30q0 22 19 29q53 -37 129 -37q115 0 163 117t97 457q55 381 78 590h-150q14 74 57 75h103q63 496 407 496q129 0 215 -74q96 115 263 115q94 0 159 -51q55 49 76 49q14 0 14 -34q0 -21 -6 -56q-160 -1061 -180 -1211q-12 -86 -35 -100 q-39 -20 -80 -25q23 133 123 816h-397q-12 -111 -30 -243l-33 -249q-15 -117 -19 -151q-45 -324 -142.5 -442t-271.5 -118q-123 0 -202 70q-74 -111 -207 -111q-61 0 -100.5 20t-43.5 38zM100 -276q68 -61 174 -62q150 0 218.5 126t107.5 439q59 440 72 566h-383 q-45 -360 -96 -713q-40 -266 -93 -356zM301 868h381q29 231 102 361q-59 63 -178 63q-258 0 -305 -424zM778 868h393q51 330 60 412q-66 49 -154 49q-133 0 -200.5 -110.5t-98.5 -350.5z" />
</font>
</defs>
</svg>
