<?xml version="1.0" standalone="no"?>
<!DOCTYPE svg PUBLIC "-//W3C//DTD SVG 1.1//EN" "http://www.w3.org/Graphics/SVG/1.1/DTD/svg11.dtd" >
<svg xmlns="http://www.w3.org/2000/svg">
<metadata>
This is a custom SVG webfont generated by Font Squirrel.
Copyright   :  1996 2001 Adobe Systems Incorporated All Rights Reserved
Designer    : Robert Slimbach
Foundry URL : httpwwwadobecomtype
</metadata>
<defs>
<font id="CronosProLight" horiz-adv-x="903" >
<font-face units-per-em="2048" ascent="1597" descent="-451" />
<missing-glyph horiz-adv-x="440" />
<glyph unicode=" "  horiz-adv-x="440" />
<glyph unicode="&#x09;" horiz-adv-x="440" />
<glyph unicode="&#xa0;" horiz-adv-x="440" />
<glyph unicode="!" horiz-adv-x="309" d="M76 59q0 35 23.5 59.5t62.5 24.5h2q31 0 51.5 -24.5t20.5 -55.5q0 -37 -24 -61.5t-58 -24.5q-29 0 -53.5 22.5t-24.5 59.5zM104 1194q4 16 41 32.5t60 16.5h2q25 0 24 -47q0 -37 -30 -743q-2 -41 -23 -56q-31 -20 -49 -20q-15 323 -25 817z" />
<glyph unicode="&#x22;" horiz-adv-x="522" d="M72 1325q53 43 84 43h2q37 0 37 -104q0 -186 -37 -310q-16 -39 -72 -43q5 89 5 165q0 151 -19 249zM330 1325q53 43 82 43h2q37 0 37 -104q0 -186 -37 -310q-6 -14 -27.5 -27.5t-44.5 -15.5q5 92 5 170q0 145 -17 244z" />
<glyph unicode="#" d="M35 512q10 33 31 53h167l68 307h-164q-35 0 -24 19q12 37 26 57h178l58 256q18 25 69 25q18 0 11 -31l-56 -250h205l55 256q0 6 28 15.5t42 9.5q20 0 12 -31l-53 -250h139q26 0 26 -18q0 -4 -1 -8q-10 -33 -31 -50h-151l-64 -307h158q18 0 23.5 -4t3.5 -14 q-12 -47 -31 -58h-170l-62 -315q-27 -27 -71 -27q-16 0 -8 33l61 309h-213l-64 -315q-6 -27 -28 -27q-8 0 -26.5 12.5t-24.5 24.5l63 305l-154 3q-16 0 -24 5q-5 3 -6 9zM315 565h211l64 307h-209z" />
<glyph unicode="$" d="M139 172l6 2q133 -92 269 -92q113 0 182.5 56.5t69.5 164.5q0 74 -56.5 129t-179.5 129q-131 76 -191.5 147.5t-60.5 178.5q0 92 54.5 160.5t114 95t106.5 31.5l16 110q6 41 31 49q33 12 65 13l-20 -168q63 -2 124.5 -28t90.5 -52q-2 -31 -20.5 -46.5t-41.5 -7.5 q-111 55 -192 56q-88 0 -155.5 -52.5t-67.5 -148.5q0 -29 5 -53.5t21.5 -48l27.5 -38t41 -37t43 -30.5l53 -33q40 -25 52 -32q6 -4 38 -24l40 -24q8 -5 36 -24.5t36 -30t28.5 -30t28.5 -36.5l19 -40q10 -23 14 -48.5t4 -54.5q0 -80 -30.5 -140t-80 -95t-97.5 -52.5 t-97 -21.5l-16 -149q-4 -33 -35 -41q-28 -7 -52 -7q-6 0 -12 1l21 190q-80 6 -141.5 30.5t-90.5 51.5q-15 16 -14 41q-1 32 14 49z" />
<glyph unicode="%" horiz-adv-x="1345" d="M68 887q0 137 70.5 241.5t197.5 104.5h2q133 0 194.5 -97.5t61.5 -240.5q0 -139 -68.5 -239.5t-197.5 -100.5q-111 0 -185.5 86t-74.5 246zM168 889q0 -106 40 -186t120 -80q82 0 124 74.5t42 205.5q0 94 -39 177t-123 83h-2q-80 0 -121 -77.5t-41 -196.5zM248 -14 l790 1286q6 10 15 10q11 0 26 -16q14 -14 21 -43l-793 -1280q-11 -17 -21 -17l-16 8q-22 17 -22 52zM754 301q0 145 72.5 248.5t203.5 103.5h2q90 0 148.5 -56t79 -129t20.5 -161q0 -137 -69.5 -234.5t-192.5 -97.5q-109 0 -186.5 78t-77.5 248zM854 303q0 -102 40 -180 t124 -78q78 0 120 71.5t42 198.5q0 43 -6.5 85t-22.5 86t-50 71t-81 27h-2q-78 0 -121 -85t-43 -196z" />
<glyph unicode="&#x26;" horiz-adv-x="1294" d="M88 307q0 66 21.5 120t71.5 104.5t80 75t95 71.5q-145 135 -145 289q0 133 84 211.5t205 78.5q109 0 184.5 -64.5t75.5 -191.5q0 -27 -4 -51t-17.5 -47.5t-21.5 -41t-31.5 -40t-33 -33t-41 -34l-37 -27.5t-42.5 -27l-34 -24l336 -320q203 354 243 410q55 72 76 72 q31 0 66 -50v-10q-109 -100 -322 -473l303 -293v-10q-53 -35 -90 -35q-20 0 -68 45l-206 201q-170 -238 -396 -238q-158 0 -255 89t-97 243zM199 315q0 -111 76.5 -180t179.5 -69h2q184 0 321 202l-370 359q-106 -78 -157.5 -152t-51.5 -160zM313 973q0 -129 138 -248 q104 72 155 136.5t51 142.5q0 82 -49 129t-119 47q-82 0 -129 -57.5t-47 -147.5v-2z" />
<glyph unicode="'" horiz-adv-x="266" d="M72 1325q53 43 84 43h2q37 0 37 -104q0 -180 -39 -310q-16 -39 -74 -43q5 100 5 183q1 142 -15 231z" />
<glyph unicode="(" horiz-adv-x="632" d="M119 506q0 584 377 928q16 -4 31.5 -23.5t13.5 -40.5q-322 -334 -322 -846q0 -549 322 -848q-23 -49 -58 -53q-164 117 -264 355.5t-100 525.5v2z" />
<glyph unicode=")" horiz-adv-x="632" d="M100 -313q322 330 322 845q0 549 -322 848q29 49 60 54q143 -104 252.5 -339t109.5 -540v-2q0 -586 -377 -930q-20 6 -33.5 25t-11.5 39z" />
<glyph unicode="*" horiz-adv-x="677" d="M78 954q-4 8 -4 16q0 16 18 27l199 76l-176 105q-33 20 -15 45q6 10 41 45l187 -154l10 246q14 2 27.5 2t25.5 -2q39 -4 33 -37l-39 -205l195 117q25 -16 32 -43q2 -7 2 -13q0 -24 -32 -38l-174 -74l186 -109q22 -14 22 -30q0 -10 -8 -21q-14 -27 -43 -45l-194 160 l-13 -244h-8q-19 0 -55 6q-19 4 -19 35q0 12 3 27l34 184l-207 -131q-24 18 -28 55z" />
<glyph unicode="+" horiz-adv-x="1148" d="M125 469q4 82 63 82h340v225q0 109 -6 164l49 8q9 2 16 2q16 0 24 -10q11 -14 12 -61v-328h401q-4 -82 -66 -82h-335v-385q0 -43 -58 -57l-37 -4v446h-403z" />
<glyph unicode="," horiz-adv-x="292" d="M-27 -211q119 160 119 309q0 31 -8 76q53 39 84 39h2q45 0 45 -104q0 -78 -55.5 -173.5t-110.5 -132.5q-18 -15 -64 -14h-12z" />
<glyph unicode="-" horiz-adv-x="589" d="M66 397q31 96 65 101q264 31 387 61l4 -4q-12 -47 -37.5 -74.5t-83.5 -42.5q-49 -14 -159.5 -29.5t-171.5 -17.5z" />
<glyph unicode="." horiz-adv-x="292" d="M61 63q0 37 25 63t66 26h2q33 0 54 -26t21 -58q0 -41 -23.5 -66t-62.5 -25q-31 0 -56.5 22.5t-25.5 63.5z" />
<glyph unicode="/" horiz-adv-x="671" d="M82 -195l418 1446q8 33 21.5 45.5t49.5 12.5l37 2l-411 -1432q-12 -45 -22.5 -59.5t-27.5 -14.5h-65z" />
<glyph unicode="0" d="M66 608q0 82 10 161t36.5 165t69.5 150.5t114 106.5t161 42h2q379 0 379 -633q0 -319 -101.5 -472t-281.5 -153q-78 0 -142.5 31t-123 98.5t-91 196.5t-32.5 307zM182 606q0 -283 81 -417t198 -134q53 0 93 20.5t81 76t63.5 175t22.5 296.5q0 80 -8 153.5t-33 167.5 t-82 151.5t-143 57.5h-2q-47 0 -90.5 -23.5t-86.5 -80t-68.5 -170t-25.5 -273.5z" />
<glyph unicode="1" d="M158 981l41 84q287 111 405 168l17 -14q0 -66 2 -575t2 -595q0 -29 -9.5 -38t-31.5 -15q-41 -8 -74 -8q0 31 1 190.5t1 413.5v514q-150 -66 -350 -129z" />
<glyph unicode="2" d="M78 23l37 67q297 307 410.5 480t113.5 304q0 135 -64.5 200t-164.5 65q-139 0 -260 -117q-33 -31 -56 -6q-12 16 -12 45q61 80 155.5 126t186.5 46q160 0 247 -97.5t87 -256.5q0 -139 -117 -310q-104 -154 -412 -479q332 -16 598 0q-2 -16 -23.5 -39.5t-39.5 -34.5 q-39 -25 -215 -24q-371 0 -467 20z" />
<glyph unicode="3" d="M96 66l4 4q113 -49 238 -50q190 0 269 88.5t79 223.5q0 121 -85 186.5t-241 65.5q-35 0 -116 -11l-2 5q16 51 45 71q147 25 237 98.5t90 198.5q0 84 -56 139.5t-155 55.5q-127 0 -215 -84q-37 -31 -53 -13q-16 16 -12 50q39 53 128 96t169 43q160 0 236.5 -87t76.5 -179 q0 -207 -229 -310q305 -63 305 -319q0 -184 -130 -291.5t-339 -107.5q-66 0 -128 16t-83 31q-33 43 -33 80z" />
<glyph unicode="4" d="M47 426q94 160 287.5 427t267.5 337q82 78 168 88l4 -8q-342 -375 -606 -813q179 -21 369 -21h63l6 398q53 18 92 22l13 -4v-416q80 0 141 10l2 -6q-18 -55 -78 -80q-8 -2 -32.5 -5t-32.5 -5v-301q0 -45 -35 -53t-82 -8q0 31 2 150.5t2 213.5q-369 0 -512 29 q-29 16 -39 45z" />
<glyph unicode="5" d="M113 688q12 84 53 282.5t59 250.5q389 10 496 22l4 -8q-10 -37 -30.5 -59.5t-83 -29.5t-320.5 -18q-14 -43 -44 -186t-32 -186q152 -25 238 -45q352 -88 352 -357q0 -184 -135 -299.5t-338 -115.5q-129 0 -178 36q-29 23 -33 76l4 4q84 -35 203 -35q152 0 255 79 q101 77 101 233q0 123 -66.5 185.5t-203.5 100.5q-133 35 -295 56z" />
<glyph unicode="6" d="M55 473q0 291 193 518q125 147 271.5 218t221.5 71q61 0 80 -41v-6q-289 -63 -450 -240q-197 -213 -197 -530q0 -201 83 -304.5t212 -103.5q106 0 183 75t77 237q0 145 -69.5 208.5t-170.5 63.5q-115 0 -235 -92q-4 16 5 47t28 47q113 92 248 92q86 0 151.5 -34.5t98 -91 t48 -112t15.5 -108.5q0 -162 -102.5 -287t-292.5 -125q-74 0 -139.5 24t-126 77t-96.5 155.5t-36 241.5z" />
<glyph unicode="7" d="M72 1139q0 14 22.5 43.5t44.5 42.5q27 -16 168 -17h516l8 -8q-23 -158 -139.5 -431t-232 -486t-162.5 -263q-35 -37 -80 -47q-31 -8 -55 -8l-4 10q143 172 326.5 544t236.5 597h-518q-131 0 -131 23z" />
<glyph unicode="8" d="M72 266q0 111 64.5 183.5t207.5 160.5q-123 63 -172 138t-49 170q0 131 96 223t244 92h2q135 0 223 -75t88 -208q0 -104 -57 -173.5t-174 -153.5q53 -29 69.5 -37t58.5 -33t56 -38l41 -40q27 -27 36 -49.5t17 -55t8 -71.5q0 -131 -107.5 -227.5t-283.5 -96.5 q-104 0 -181 30t-115 77t-55 93t-17 91zM184 285q0 -111 80 -171.5t189 -60.5h2q113 0 188.5 60.5t75.5 175.5q0 82 -62.5 138t-236.5 142q-115 -66 -175.5 -132t-60.5 -152zM227 932q0 -90 56.5 -149.5t187.5 -123.5q201 131 201 281q0 98 -60.5 156.5t-165.5 58.5h-2 q-86 0 -151.5 -58.5t-65.5 -164.5z" />
<glyph unicode="9" d="M63 838q0 154 103.5 274.5t279.5 120.5q137 0 227.5 -79t124 -188.5t33.5 -240.5q0 -348 -229 -578q-104 -104 -226 -156t-175 -52q-31 0 -45 8q-25 16 -35 41l2 6q92 16 213 72.5t199 144.5q176 199 176 516q0 188 -73 307t-204 119q-115 0 -183.5 -87t-68.5 -212 q0 -139 68.5 -209t183.5 -70q80 0 170 46q1 -8 1 -16q0 -36 -23 -58q-20 -23 -73.5 -41.5t-111.5 -18.5q-162 0 -248 103t-86 248z" />
<glyph unicode=":" horiz-adv-x="292" d="M61 760q0 39 22.5 64.5t61.5 25.5h2q35 0 55.5 -24.5t20.5 -61.5t-22.5 -62.5t-57.5 -25.5q-31 0 -56.5 22.5t-25.5 61.5zM66 61q0 41 25.5 66t62.5 25h2q31 0 54 -25t23 -61q0 -39 -23.5 -64t-62.5 -25q-31 0 -56 22.5t-25 61.5z" />
<glyph unicode=";" horiz-adv-x="292" d="M-27 -211q49 66 84 152t35 157q0 31 -8 76q53 39 84 39h2q45 0 45 -104q0 -78 -55.5 -174.5t-110.5 -133.5q-22 -13 -63 -12h-13zM61 760q0 39 24 64.5t65 25.5h2q35 0 54 -25.5t19 -60.5q0 -37 -23.5 -62.5t-58.5 -25.5q-31 0 -56.5 22.5t-25.5 61.5z" />
<glyph unicode="&#x3c;" horiz-adv-x="1148" d="M203 463q0 25 22 47l649 424q11 8 22 8q15 0 28 -18q18 -33 20 -52l-616 -393v-6l614 -387q0 -33 -18 -57q-12 -18 -27 -18q-11 0 -25 9l-643 412q-26 19 -26 31z" />
<glyph unicode="=" horiz-adv-x="1148" d="M123 268q4 82 65 82h836q-2 -45 -15.5 -63.5t-50.5 -18.5h-835zM123 662q4 82 65 81h836q-2 -47 -15.5 -64t-50.5 -17h-835z" />
<glyph unicode="&#x3e;" horiz-adv-x="1148" d="M205 86l614 395v6l-614 385q0 29 20.5 60t50.5 8l642 -412q27 -16 26 -28q0 -35 -22 -51l-648 -424q-31 -23 -51 10q-8 18 -18 51z" />
<glyph unicode="?" horiz-adv-x="606" d="M84 1139q104 104 238 104h2q106 0 173.5 -68.5t67.5 -175.5q0 -51 -22.5 -105t-46 -90t-68.5 -93q-100 -131 -100 -224q0 -57 20 -96q-20 -23 -53 -22q-10 0 -23.5 10t-28 38.5t-14.5 69.5q0 106 101 252q4 4 20.5 28t23.5 35l22 34q15 23 23 38l16 37q9 20 13.5 41 t4.5 39q0 70 -39 113t-111 43q-98 0 -180 -70h-6q-37 13 -33 62zM231 59q0 35 24 59.5t64 24.5h3q31 0 51 -24.5t20 -55.5q0 -37 -23.5 -61.5t-58.5 -24.5q-29 0 -54.5 22.5t-25.5 59.5z" />
<glyph unicode="@" horiz-adv-x="1449" d="M82 541q0 330 203.5 541.5t525.5 211.5q248 0 402.5 -150.5t154.5 -389.5q0 -209 -106.5 -346.5t-266.5 -137.5q-140 0 -139 168q0 36 6 80q-139 -248 -325 -248q-57 0 -94 56.5t-37 148.5q0 205 120.5 357.5t313.5 152.5q78 0 200 -35q-90 -379 -90 -381 q-11 -64 -11 -108q0 -40 9 -64q18 -51 78 -51q98 0 175 100.5t77 317.5q0 205 -138.5 330t-334.5 125q-287 0 -456 -187.5t-169 -484.5q0 -233 138.5 -383t379.5 -150q197 0 355 119l6 -2q8 -8 4 -38t-27 -44q-150 -119 -389 -119q-238 0 -401.5 164t-163.5 447zM502 494 q0 -66 20.5 -102t52.5 -36h3q72 0 158.5 91.5t137.5 234.5q27 72 60 215q-27 16 -105 16q-158 0 -242.5 -126.5t-84.5 -292.5z" />
<glyph unicode="A" horiz-adv-x="1261" d="M33 10l2 13q84 166 282 599l263 576l-31 70q41 18 72 18q35 0 47 -31q350 -803 383 -872l70 -155l62 -134l38 -76v-10q-55 -20 -88 -20q-16 0 -28.5 12t-27.5 45l-178 397h-559q-145 -326 -201 -434q-10 -20 -35 -20q-38 -1 -71 22zM377 528h487l-239 562z" />
<glyph unicode="B" horiz-adv-x="974" d="M154 1268q104 23 274 22q98 0 172 -24.5t113 -59.5t62.5 -82t29.5 -79.5t6 -63.5q0 -88 -46 -164t-124 -121q125 -37 192.5 -123t67.5 -196q0 -190 -135 -293.5t-340 -103.5q-129 0 -266 34v977q0 168 -6 277zM272 627v-549q51 -18 156 -19q154 0 251 78t97 230 q0 135 -97 202.5t-271 67.5q-95 0 -136 -10zM272 705q74 13 176 12q45 0 97 -2q53 16 99 86.5t46 163.5q0 106 -70.5 174.5t-230.5 68.5q-63 0 -117 -8v-495z" />
<glyph unicode="C" horiz-adv-x="1185" d="M84 633q0 301 197.5 489.5t498.5 188.5q129 0 231.5 -34t131.5 -69q-4 -35 -25.5 -51t-38.5 -12q-137 74 -309 74q-236 0 -398.5 -153t-162.5 -425q0 -264 154.5 -423t437.5 -159q176 0 315 70l4 -6q-4 -59 -55 -90q-35 -25 -119 -44.5t-182 -19.5q-330 0 -505 180.5 t-175 483.5z" />
<glyph unicode="D" horiz-adv-x="1306" d="M156 1260q16 8 129.5 19t191.5 11q188 0 330.5 -43t222.5 -106.5t128 -152.5t63.5 -166t15.5 -163q0 -322 -205 -500.5t-532 -178.5q-166 0 -340 47v987q0 180 -4 246zM272 84q76 -25 238 -25q264 0 433 145.5t169 446.5q0 252 -158.5 403.5t-484.5 151.5 q-117 0 -197 -14v-1108z" />
<glyph unicode="E" horiz-adv-x="878" d="M156 1249q49 20 92 29h540q0 -41 -36 -72q-27 -14 -136 -14h-344v-492h504q-12 -57 -36.5 -71.5t-82.5 -14.5h-385v-522q49 -18 299 -18q203 0 279 10l4 -4q-27 -74 -82 -84q-49 -8 -219 -8q-283 0 -367 22l-26 35v946q0 188 -4 258z" />
<glyph unicode="F" horiz-adv-x="862" d="M154 1251q70 23 104 27h557q-8 -41 -29 -66q-20 -20 -129 -20h-385v-535h514q2 -49 -27.5 -67.5t-82.5 -18.5h-404q0 -334 7 -567q-43 -16 -89 -16q-31 0 -30 30v1012q0 178 -6 221z" />
<glyph unicode="G" horiz-adv-x="1331" d="M84 631q0 303 204 491.5t507 188.5q115 0 212 -25.5t136 -48.5t57 -41q2 -29 -19.5 -50.5t-45.5 -10.5q-145 86 -355 86q-250 0 -410.5 -161t-160.5 -417q0 -158 52 -275.5t141.5 -184t193.5 -98.5t223 -32q70 0 152 15.5t119 37.5v199q0 236 -9 279q55 31 99 30 q23 0 22 -55v-475q-72 -47 -125 -66q-127 -49 -280 -49q-147 0 -271.5 37t-225.5 113t-158.5 207t-57.5 305z" />
<glyph unicode="H" horiz-adv-x="1314" d="M154 -12q6 123 6 374v648q0 203 -6 260q55 16 88 16q18 0 24 -17.5t6 -84.5v-479h772v524q0 27 7.5 36t27.5 13q33 8 84 8q-6 -117 -6 -368v-662q0 -129 6 -252q-61 -16 -98 -16q-20 0 -21 28v609q-61 -6 -339 -7h-433v-573q0 -27 -8 -36t-33 -13q-34 -6 -77 -8z" />
<glyph unicode="I" horiz-adv-x="430" d="M154 1270q55 16 94 16q16 0 20 -17.5t4 -84.5v-930q0 -127 7 -250q-45 -16 -95 -16q-25 0 -24 37v987q0 203 -6 258z" />
<glyph unicode="J" horiz-adv-x="430" d="M-61 -213l2 6q78 25 119.5 65t70.5 146.5t29 292.5v715q0 203 -6 258q55 16 96 16q16 0 19 -15.5t3 -84.5v-875q0 -219 -32.5 -334.5t-116.5 -183.5q-72 -59 -127 -59q-16 0 -33.5 16.5t-23.5 36.5z" />
<glyph unicode="K" horiz-adv-x="1132" d="M154 1270q76 16 96 16q16 0 19 -13t3 -79v-551l693 657q18 0 59 -10q21 -5 21 -19q0 -17 -33 -48l-609 -570q139 -143 355.5 -345t343.5 -298v-4q-37 -23 -98 -22q-41 0 -91 41l-338 314q-244 230 -303 294v-377q0 -129 7 -252q-49 -16 -91 -16q-16 0 -22 6t-6 24v992 q0 203 -6 260z" />
<glyph unicode="L" horiz-adv-x="854" d="M154 1270q76 16 96 16q23 0 22 -104v-1090q49 -18 260 -18q219 0 299 10l3 -4q-8 -70 -76 -84q-49 -8 -219 -8q-252 0 -353 22l-26 35v965q0 203 -6 260z" />
<glyph unicode="M" horiz-adv-x="1718" d="M82 6l254 1204l-19 58q59 18 99 18l121 -299l311 -786l434 1024l-6 43q33 18 78 18q20 0 28 -47l146 -768q57 -301 98 -465q-47 -18 -86 -18q-27 0 -35 35q-29 133 -69 360l-123 709l-426 -1037q-14 -37 -35 -45q-20 -10 -51 -10q-33 102 -98 275l-175 461l-135 351 q-35 -193 -116.5 -603l-92.5 -466q-10 -31 -32 -30q-39 0 -70 18z" />
<glyph unicode="N" horiz-adv-x="1351" d="M117 1262v8q43 16 88 16q23 0 45 -35q31 -35 112 -141l216 -281l239 -309q217 -276 279 -377q-10 250 -11 508v568q0 53 37 59q57 8 64 8q-6 -131 -6 -377v-909q-27 -27 -64 -27q-2 0 -8 2t-8 2l-631 824q-162 215 -205 278q10 -348 10 -495v-521q0 -39 -8 -50t-30 -17 q-35 -8 -60 -8q6 123 6 372v818z" />
<glyph unicode="O" horiz-adv-x="1458" d="M84 621q0 299 175 494.5t468 195.5h2q283 0 464 -188.5t181 -471.5q0 -133 -40 -252.5t-115.5 -217t-201.5 -155t-284 -57.5q-137 0 -249.5 43t-185.5 110.5t-122 155t-70.5 173.5t-21.5 170zM209 633q0 -266 161.5 -425t370.5 -159q225 0 366.5 152.5t141.5 445.5 q0 254 -150.5 419t-379.5 165h-2q-227 0 -367.5 -162t-140.5 -436z" />
<glyph unicode="P" horiz-adv-x="960" d="M152 1270q154 20 270 20q211 0 337 -95t126 -288q0 -182 -119 -285.5t-272 -103.5q-84 0 -117 27q-12 8 -20.5 29.5t-6.5 39.5q51 -18 131 -18q61 0 119.5 22.5t109 94t50.5 184.5q0 309 -350 309q-78 0 -138 -8v-944q0 -127 7 -250q-43 -16 -91 -16q-29 0 -28 37v968 q0 183 -8 277z" />
<glyph unicode="Q" horiz-adv-x="1458" d="M84 618q0 303 176 498t471 195h2q285 0 463 -190.5t178 -469.5q0 -242 -116.5 -419t-346.5 -244q63 -29 170 -101q248 -160 394 -182v-8q-33 -49 -109 -49q-20 0 -41.5 3t-46.5 11t-43 15.5t-49 23.5l-48 26q-17 9 -55 32l-54 35l-61 41q-44 30 -65 42q-115 76 -237 88 q-268 37 -425 216t-157 437zM209 633q0 -182 83 -319.5t201.5 -201t249.5 -63.5q229 0 367.5 150.5t138.5 447.5q0 254 -149.5 419t-382.5 165h-2q-225 0 -365.5 -163t-140.5 -435z" />
<glyph unicode="R" horiz-adv-x="1040" d="M154 -12q6 123 6 372v684q0 150 -4 220q133 27 266 26q418 0 418 -356q0 -139 -85 -225t-182 -123q88 -57 211 -254q168 -266 246 -324l-2 -10q-23 -14 -78 -14q-68 0 -143 116q-139 215 -174 265q-82 119 -131 155.5t-156 36.5h-74v-514q0 -43 -30 -49q-53 -6 -88 -6z M272 635q66 -3 116 -3q99 0 130 11q88 29 144.5 100.5t56.5 184.5q0 150 -86 215t-211 65q-102 0 -150 -10v-563z" />
<glyph unicode="S" horiz-adv-x="843" d="M80 90q4 37 16 66q53 -45 134 -71t151 -26q127 0 202.5 63.5t75.5 172t-63.5 173t-226.5 155.5q-164 92 -215.5 178t-51.5 190q0 49 18.5 99.5t57.5 102.5t117 85t184 33h2q61 0 131 -21.5t105 -56.5q2 -20 -12.5 -42t-32.5 -24q-102 55 -207 56q-98 0 -173 -54.5 t-75 -169.5q0 -100 55.5 -160.5t196.5 -138.5q180 -100 243.5 -180t63.5 -207q0 -156 -113.5 -250t-287.5 -94q-88 0 -162 24.5t-109 53.5q-24 20 -24 43z" />
<glyph unicode="T" horiz-adv-x="1067" d="M43 1225q20 35 49 63q27 -10 311 -10h654q2 -14 -13.5 -44t-31.5 -40h-416v-940q0 -127 6 -250q-55 -16 -96 -16q-23 0 -23 37v1169h-411q-32 0 -33 17q0 6 4 14z" />
<glyph unicode="U" horiz-adv-x="1337" d="M147 1270q55 16 89 16q20 0 25 -16.5t5 -87.5v-588q0 -537 406 -537q68 0 119 10.5t109 44t95 93t61.5 167t24.5 255.5v602q0 41 35 49q25 2 34 4t13 3t23 1q-6 -116 -6 -368v-287q0 -172 -36 -299t-87 -194.5t-128 -107.5t-137.5 -50.5t-136.5 -10.5q-109 0 -193.5 29 t-157.5 95.5t-111.5 194.5t-38.5 312v410q-1 203 -7 260z" />
<glyph unicode="V" horiz-adv-x="1189" d="M57 1247q6 12 36 25.5t52 13.5q18 0 33 -28.5t68 -165.5l372 -953l196 493l255 654q43 -10 55 -14q39 -18 19 -72l-471 -1153q-16 -37 -35 -51q-33 -20 -66 -21l-120 309l-132 334l-124 307z" />
<glyph unicode="W" horiz-adv-x="1812" d="M59 1253q57 33 93 33q14 0 25 -22.5t40 -110.5l143.5 -450.5t171.5 -552.5q176 596 334 1073q-8 45 -8 47q29 16 70 16h2q16 0 31 -33q168 -528 331 -1099q379 1094 391 1132q37 0 74 -16q8 -5 8 -20q0 -19 -12 -54l-403 -1118q-23 -59 -43 -80q-23 -23 -62 -23 l-336 1119q-45 -154 -168 -543t-147 -475q-20 -66 -47 -82q-33 -18 -58 -19q-254 811 -430 1278z" />
<glyph unicode="X" horiz-adv-x="1130" d="M29 4v6l481 637q-57 86 -146 209l-184 250q-94 127 -112 154v2q59 25 98 24q16 0 65 -74l344 -477l373 502q35 49 58 49q33 0 69 -22v-4l-187 -249l-259 -345q367 -516 477 -656v-6q-55 -18 -92 -18q-33 0 -62 39l-391 553l-414 -566q-14 -25 -45 -24q-34 0 -73 16z" />
<glyph unicode="Y" horiz-adv-x="1114" d="M39 1257v7q49 23 94 22q20 0 82 -86l356 -508l223 308q169 237 199 286q23 0 62 -14q16 -6 16 -21q0 -18 -22 -49l-212 -288q-185 -253 -204 -275q-20 -25 -21 -78v-311q0 -123 6 -246q-29 -16 -94 -16q-25 0 -24 37v522q0 63 -15 84l-224 323q-148 209 -222 303z" />
<glyph unicode="Z" horiz-adv-x="1130" d="M68 47q209 260 457.5 608.5t365.5 538.5h-658q-55 0 -82.5 4t-32.5 9t-5 16q0 14 18.5 35.5t34.5 31.5q39 -12 149 -12h719q-12 -57 -53 -125q-270 -432 -754 -1071q176 -8 472 -9h81q229 0 314 5l2 -4q-37 -57 -80 -74q-29 -12 -281 -12q-592 0 -635 16q-30 27 -32 43z " />
<glyph unicode="[" horiz-adv-x="622" d="M182 -162.5q0 113.5 2 305t2 291.5v2q0 526 21 912q12 8 131 21t170 13q23 -33 22 -57q0 -8 -32 -10l-168 -23q-33 -8 -39 -51q-14 -94 -17 -821q-1 -181 -1 -314q0 -265 6 -337q4 -37 47 -48q61 -10 163 -20q12 -2 17.5 -7t3.5 -9q-4 -29 -21 -52q-82 0 -152.5 7.5 t-106 15.5t-42.5 14q-6 54 -6 167.5z" />
<glyph unicode="\" horiz-adv-x="589" d="M66 1253q-2 6 -2 11q0 14 12 25q16 15 63 18l11 4l362 -1432q5 -22 5 -36q0 -13 -4 -19q-9 -14 -40 -17l-43 -2z" />
<glyph unicode="]" horiz-adv-x="622" d="M92 -307q0 8 33 10l66 8q34 4 64 8.5t38 6.5q35 8 39 51q14 94 16 819q1 181 2 313q0 265 -6 338q-6 41 -47 47q-68 12 -160 21q-12 2 -19 7t-5 11q4 27 20 49q254 0 301 -36q6 -53 6 -167t-2 -305.5t-2 -291.5v-2q0 -573 -20 -912q-8 -8 -129 -21.5t-172 -13.5 q-23 33 -23 60z" />
<glyph unicode="^" horiz-adv-x="1148" d="M162 477l350 717q10 29 43 35q41 6 63 4l369 -756q-10 -10 -37.5 -21.5t-42.5 -11.5q-18 0 -37 45l-301 635l-299 -649q-20 -31 -37 -31q-38 0 -71 33z" />
<glyph unicode="_" horiz-adv-x="1024" d="M0 -154h1024v-102h-1024v102z" />
<glyph unicode="`" horiz-adv-x="819" d="M221 1313q-9 7 -9 16q0 11 15 25q39 39 66 39h2q16 -2 78.5 -106.5t93.5 -176.5q5 -13 5 -24q0 -14 -9 -23q-31 -27 -35 -29q-113 173 -207 279z" />
<glyph unicode="a" horiz-adv-x="833" d="M66 186q0 37 10 70t31.5 59.5t44 48t57.5 39.5l58 31q24 12 63 25l55 17q16 5 49 13l33 9q74 16 100 20l2 84q0 90 -48 153.5t-144 63.5q-113 0 -225 -92q-20 -12 -39 1t-25 46q43 49 129 94t176 45q281 0 281 -338q0 -29 -1 -128t-2 -166q0 -23 -1 -47q0 -48 2 -101 q2 -78 65 -78q20 0 43 8l2 -4q1 -6 1 -11q0 -35 -23 -52q-27 -20 -70 -21q-61 0 -93 43t-30 101q-119 -143 -280 -144q-102 0 -161.5 64.5t-59.5 146.5zM180 205v-2q0 -59 43 -96t105 -37q78 0 137 41t90 94q12 20 12 65v172q-61 -12 -102 -21t-100.5 -29.5t-95.5 -44 t-62.5 -60.5t-26.5 -82z" />
<glyph unicode="b" horiz-adv-x="1007" d="M143 1372q74 20 93 21q8 0 13 -7.5t7 -36t2 -89.5l-2 -453q174 106 309 106q55 0 113.5 -20.5t120 -65.5t100.5 -135t39 -211q0 -233 -153.5 -369.5t-383.5 -136.5q-70 0 -136 16.5t-91 33.5q-23 16 -22 61v1053q-1 151 -9 233zM256 735v-653q57 -25 158 -25 q176 0 291.5 111t115.5 299q0 168 -88 258t-229 90q-51 0 -124 -23.5t-124 -56.5z" />
<glyph unicode="c" horiz-adv-x="843" d="M74 438q0 207 137 341t342 134q90 0 159.5 -25.5t86.5 -47.5q0 -31 -17.5 -51.5t-40.5 -14.5q-94 49 -206 49q-154 0 -249.5 -108.5t-95.5 -270.5q0 -111 37 -189.5t96.5 -116.5t118 -54t117.5 -16q121 0 217 43l4 -5q-8 -63 -41 -81q-78 -49 -209 -50q-55 0 -107 8.5 t-118.5 37t-115 76.5t-82 136t-33.5 205z" />
<glyph unicode="d" horiz-adv-x="1030" d="M74 422q0 213 143 352t361 139q37 0 70.5 -5t51 -10t41 -13t25.5 -8v309q0 63 -6 186q66 20 86 21q10 0 14 -7.5t7 -37t3 -88.5v-1070q0 -80 19.5 -108.5t73.5 -34.5v-6q-6 -27 -26 -46.5t-42 -19.5q-53 0 -84 36t-35 89q-66 -55 -153.5 -90t-159.5 -35 q-160 0 -274.5 115t-114.5 332zM190 428q0 -158 91.5 -256t230.5 -98q145 0 254 94v623q-68 41 -201 40q-150 0 -262.5 -103t-112.5 -300z" />
<glyph unicode="e" horiz-adv-x="858" d="M72 424q0 209 110.5 349t300.5 140q150 0 232 -95t86 -228q0 -43 -4 -62q-6 -27 -65.5 -44t-115.5 -19q-90 -6 -213 -6q-99 0 -221 4v-16q0 -167 86 -270q90 -108 250 -107q61 0 129 17t101 36l4 -2q-4 -63 -50 -94q-84 -51 -210 -52q-203 0 -311.5 120t-108.5 329z M193 545h440q55 4 55 43v13q0 100 -57 166q-61 71 -170 71h-2q-98 0 -173 -79t-93 -214z" />
<glyph unicode="f" horiz-adv-x="503" d="M57 834q25 33 103 55q0 311 145 440q86 76 197 76h2q37 0 71.5 -13.5t45.5 -29.5q2 -23 -16.5 -43.5t-41.5 -11.5q-39 14 -80 14q-94 0 -157 -98q-62 -95 -62 -320v-14q281 0 301 4q-6 -31 -45 -64q-29 -23 -256 -22q-1 -57 -1 -144q0 -129 2 -323q3 -324 3 -336 q-20 -16 -84 -16q-25 0 -24 35v784q-103 0 -103 27z" />
<glyph unicode="g" horiz-adv-x="892" d="M49 -182q0 59 58.5 123.5t146.5 113.5q-119 45 -127 146q0 12 14 20q61 41 111 94q-156 80 -156 269q0 139 93.5 234t232.5 95h2q76 0 143 -18q109 -29 166 -29q78 0 127 15q4 -16 4 -23q0 -70 -106 -76q-16 -2 -72 -2q49 -86 49 -178q0 -154 -93 -238.5t-222 -84.5 q-63 0 -101 12q-76 -63 -75 -80q0 -66 141 -72q39 -2 95.5 -4t96 -4t70.5 -6q104 -14 158.5 -74.5t54.5 -152.5q0 -152 -132 -250.5t-310 -98.5q-180 0 -274.5 80t-94.5 189zM158 -168q0 -90 89 -142t202 -52q141 0 227 65.5t86 167.5q0 137 -160 158q-78 9 -153 9 q-25 0 -50 -1q-61 0 -94 -19q-59 -31 -103 -81t-44 -103v-2zM205 586q0 -100 59.5 -167t153.5 -67q104 0 156.5 72t52.5 172q0 104 -52.5 174t-154.5 70h-2q-88 0 -150.5 -66.5t-62.5 -187.5z" />
<glyph unicode="h" horiz-adv-x="1026" d="M143 1372q78 20 90 21q23 0 23 -133v-500q166 154 322 153q297 0 296 -389v-284q0 -209 5 -236q-49 -16 -95 -16q-16 0 -16 26q0 6 1 94.5t1 206.5v197q0 307 -229 307q-90 0 -168 -48t-117 -97v-635q0 -41 -33 -47q-27 -4 -78 -4q6 61 7 383v768q-1 151 -9 233z" />
<glyph unicode="i" horiz-adv-x="405" d="M133 1245q0 33 21.5 53.5t48.5 20.5h2q29 0 47 -20.5t18 -51.5q0 -29 -18.5 -51t-48.5 -22q-70 -1 -70 71zM143 883q41 18 90 18q23 0 23 -125v-727q0 -45 -27 -51q-35 -8 -84 -10q6 246 7 319v344q-1 142 -9 232z" />
<glyph unicode="j" horiz-adv-x="405" d="M-37 -412l2 9q94 51 140.5 163.5t46.5 341.5v549q0 141 -9 232q41 18 90 18q23 0 23 -125v-667q0 -262 -66 -394q-37 -72 -90 -119t-77 -47q-35 0 -60 39zM133 1239q0 35 21.5 56.5t48.5 21.5h2q29 0 47 -21.5t18 -52.5t-18.5 -53.5t-48.5 -22.5q-33 0 -51.5 21.5 t-18.5 50.5z" />
<glyph unicode="k" horiz-adv-x="886" d="M143 1366q41 27 90 27q23 0 23 -133v-785q127 104 475 438q41 0 72 -10q10 -4 13 -8t-1 -12.5t-16.5 -21.5l-38.5 -40l-377 -342q84 -98 253 -265t232 -208l-2 -6q-29 -16 -80 -16q-45 0 -96 43q-61 51 -214.5 206.5t-219.5 229.5v-414q0 -31 -8 -41t-31 -14 q-41 -6 -72 -6q6 123 7 372v779q-1 137 -9 227z" />
<glyph unicode="l" horiz-adv-x="405" d="M143 1372q53 20 93 21q8 0 12 -7.5t6 -37t2 -88.5v-990q0 -100 6 -266q-49 -16 -84 -16q-27 0 -26 26v1125q-1 151 -9 233z" />
<glyph unicode="m" horiz-adv-x="1583" d="M127 868v4q10 10 36.5 24.5t39.5 14.5q51 0 55 -166q160 168 315 168q184 0 250 -170q158 170 326 170q285 0 285 -362v-324q0 -158 8 -223q-78 -16 -96 -16q-16 0 -17 26v518q0 285 -215 285q-133 0 -268 -145l2 -625q0 -33 -6 -42t-29 -13q-35 -4 -76 -4q6 61 6 383 v164q0 283 -208 282q-139 0 -273 -158v-626q0 -37 -35 -41q-27 -4 -75 -4q6 61 6 383v354q0 123 -31 143z" />
<glyph unicode="n" horiz-adv-x="1024" d="M127 866v6q10 10 35.5 24.5t38.5 14.5q57 0 57 -166q63 72 149.5 120t172.5 48q293 0 292 -368v-316q0 -160 9 -225q-82 -16 -95 -16q-20 0 -20 22l2 527q2 283 -221 282q-88 0 -164 -51t-121 -115v-610q0 -31 -8 -40t-31 -11q-12 -2 -38.5 -3t-32.5 -1q6 61 6 383v354 q0 114 -31 141z" />
<glyph unicode="o" horiz-adv-x="1013" d="M72 434q0 201 123.5 340t320.5 139h2q203 0 313.5 -129t110.5 -333q0 -201 -118.5 -338.5t-315.5 -137.5q-119 0 -208 43t-136 114t-69.5 146.5t-22.5 155.5zM188 453q0 -188 95.5 -294t236.5 -106q49 0 98.5 18.5t98.5 59.5t78.5 122t29.5 191q0 164 -83 278t-238 114 h-2q-123 0 -218.5 -99.5t-95.5 -283.5z" />
<glyph unicode="p" horiz-adv-x="1030" d="M127 868v6q49 37 78 37q12 0 23.5 -14t20.5 -50t9 -85q182 152 340 151q139 0 249.5 -106.5t110.5 -327.5q0 -217 -137 -360.5t-338 -143.5q-129 0 -221 66v-428q0 -23 -6 -30t-29 -17q-53 -4 -75 -4q6 57 6 383v796q0 96 -31 127zM262 678v-555q96 -63 223 -64 q53 0 108.5 18.5t114 60.5t96.5 128t38 205q0 156 -82 249t-203 93q-84 0 -169 -45t-126 -90z" />
<glyph unicode="q" horiz-adv-x="1011" d="M72 420q0 219 144 356t362 137q117 0 221 -39l57 11h10q0 -4 -4 -159t-4 -327v-798q0 -43 -29 -50q-37 -6 -81 -6q6 104 6 365v164q-57 -43 -136 -71t-141 -28q-168 0 -286.5 118t-118.5 327zM188 438q0 -160 91.5 -262t248.5 -102q51 0 117 19.5t109 47.5v658 q-70 35 -199 35q-139 0 -253 -104t-114 -292z" />
<glyph unicode="r" horiz-adv-x="612" d="M111 858v6q12 12 36.5 30.5t36.5 18.5q29 0 49.5 -51t20.5 -147q49 96 114.5 147t127 51t90.5 -32q4 -27 -4 -41q-10 -37 -45 -41q-29 14 -66 14q-45 0 -95 -43t-87 -125q-27 -63 -27 -121v-485q0 -43 -29 -45q-45 -6 -81 -6q6 41 6 383v336q0 120 -47 151z" />
<glyph unicode="s" horiz-adv-x="663" d="M72 100q12 31 34 29q94 -68 209 -68q92 0 141.5 43t49.5 113q0 92 -119 152l-82 41l-72 34q-145 80 -145 220q0 109 84 179t201 70h2q57 0 112.5 -18t79.5 -51q2 -16 -12 -37t-35 -23q-76 45 -158 45q-72 0 -120.5 -40.5t-48.5 -106.5q0 -94 98 -145q29 -16 94.5 -48 t103.5 -55q123 -74 123 -192q0 -131 -92 -199t-213 -68q-164 0 -233 78q-8 13 -8 26q0 11 6 21z" />
<glyph unicode="t" horiz-adv-x="663" d="M92 836q4 12 31 40.5l59 60.5l39 38q23 25 62 41q0 -27 -1 -54.5t-2 -43t-1 -29.5h344q-18 -74 -93 -78q-59 -4 -251 -4q-9 -200 -9 -350q0 -131 6 -224q12 -166 160 -165q96 0 162 49l4 -4q4 -14 4 -27q0 -36 -35 -63q-66 -47 -163 -48q-233 0 -234 265v565 q-82 0 -82 31z" />
<glyph unicode="u" horiz-adv-x="1017" d="M143 883q41 18 90 18q20 0 21 -125q2 -135 2 -407q0 -96 20.5 -159t57.5 -90.5t71.5 -36.5t81.5 -9q84 0 158 46t105 97v612q0 51 24 60q49 12 86 12q0 -6 -3 -133t-3 -231v-344q0 -82 17.5 -111t66.5 -35v-8q-2 -18 -22.5 -41t-45.5 -23q-49 0 -79.5 43t-32.5 115 q-70 -82 -183 -131q-61 -27 -133 -27q-143 0 -216.5 88.5t-73.5 241.5v346q-1 142 -9 232z" />
<glyph unicode="v" horiz-adv-x="856" d="M37 872q51 41 86 41h2q18 0 35 -39q104 -244 278 -735q299 766 303 774q33 0 68 -22q14 -5 14 -21q0 -18 -30 -90l-291 -710q-31 -66 -47 -74q-27 -14 -62 -21q-8 27 -28 78l-75 192l-116 302q-96 245 -137 325z" />
<glyph unicode="w" horiz-adv-x="1343" d="M45 870q43 43 86 43h2q18 0 29 -28l250 -740l237 672q-6 25 -14 43q39 29 72 29q20 0 49 -96q12 -41 209 -637l270 757q29 0 68 -26q7 -7 7 -25q0 -32 -24 -96l-268 -709q-18 -51 -49 -65l-47 -17l-232 719q-129 -385 -231 -651q-16 -39 -37 -47q-39 -18 -55 -21 q-14 37 -81 238t-110 317q-100 274 -131 340z" />
<glyph unicode="x" horiz-adv-x="849" d="M18 2v4q70 86 340 451q-168 250 -309 422v4q61 31 94 30q18 0 66 -69q6 -8 87 -124t128 -177l240 327q31 43 49 43q27 0 82 -16v-4l-320 -422q131 -188 348 -465v-4q-39 -14 -98 -14q-25 0 -43 22l-270 377l-275 -377q-12 -23 -39 -22q-37 0 -80 14z" />
<glyph unicode="y" horiz-adv-x="831" d="M45 874q49 39 84 39q23 0 31 -20q27 -61 140.5 -369.5t137.5 -369.5q66 133 151 373.5t122 385.5q9 1 17 1q38 0 56 -15q12 -11 12 -31q0 -14 -5 -32q-131 -403 -234 -639q-63 -145 -151.5 -302t-153 -250.5t-80.5 -93.5q-51 0 -80 29v4q172 223 289 459q-10 12 -45 94 q-170 479 -291 737z" />
<glyph unicode="z" horiz-adv-x="751" d="M39 41q78 102 256 360t262 406h-373q-123 0 -123 24q0 31 50 72q29 -14 186 -14h387q-6 -63 -33 -113q-43 -84 -458 -692q111 -9 260 -9q30 0 61 1q188 2 227 10q-6 -41 -41 -70q-33 -23 -262 -22q-307 0 -375 16z" />
<glyph unicode="{" horiz-adv-x="622" d="M100 582q113 18 153 67t40 127q0 59 -18.5 190.5t-18.5 174.5q0 158 111 235q74 53 149 58q12 -12 12 -45q0 -12 -24 -25q-84 -33 -118 -87t-34 -142q0 -45 18.5 -162t18.5 -182q0 -166 -123 -226q43 -18 69.5 -43.5t38 -62.5t13.5 -64.5t2 -81.5q0 -80 -21.5 -206.5 t-21.5 -180.5q0 -170 156 -219q29 -8 28 -22v-2q0 -29 -16 -45q-115 4 -189.5 77.5t-74.5 208.5q0 61 21.5 204.5t21.5 209.5q0 94 -37 139t-131 49q-12 2 -21 20q-5 12 -5 23q0 7 1 13z" />
<glyph unicode="|" horiz-adv-x="532" d="M215 -512v2048h102v-2048h-102z" />
<glyph unicode="}" horiz-adv-x="622" d="M92 1386v3q0 29 17 45q115 -4 188.5 -77t73.5 -210q0 -66 -21.5 -199t-21.5 -176q0 -94 36.5 -139t131.5 -51q12 -2 20 -18.5t4 -35.5q-115 -18 -153.5 -66t-38.5 -128q0 -55 18.5 -201.5t18.5 -202.5q0 -156 -111 -233q-76 -55 -148 -59q-14 14 -14 47q0 10 23 20 q84 35 118.5 90t34.5 144q0 45 -18.5 172t-18.5 192q0 172 123 242q-76 35 -99.5 94t-23.5 156q0 55 21.5 176t21.5 184q0 82 -33.5 131t-119.5 78q-29 8 -29 22z" />
<glyph unicode="~" horiz-adv-x="1148" d="M123 375q8 111 37.5 186.5t70.5 107t74 43t66 11.5h2q109 0 223 -119q8 -8 24.5 -26.5t24.5 -26.5l24 -24q15 -15 25.5 -23l24.5 -18.5t26.5 -15.5t27.5 -9t30 -4q63 0 95 49t46 178q6 31 23 31q37 0 57 -29q-10 -322 -223 -321q-66 0 -124.5 39.5t-137.5 125.5 q-98 104 -168 105q-121 0 -154 -225q-4 -41 -49 -41q-25 0 -45 6z" />
<glyph unicode="&#xa1;" horiz-adv-x="309" d="M76 827q0 37 23.5 61.5t58.5 24.5q33 0 55.5 -24.5t22.5 -59t-23 -58t-63 -23.5h-3q-31 0 -51 24t-20 55zM82 -307q0 45 15.5 386t15.5 359q0 37 20 54q37 23 51 22q14 -324 25 -817q-4 -16 -40 -32.5t-58 -16.5h-2q-27 0 -27 45z" />
<glyph unicode="&#xa2;" d="M125 612q0 106 37 188.5t96 127.5t111.5 67.5t105.5 34.5l10 100q4 25 20.5 36.5t57.5 13.5h21l-17 -146q133 -8 189 -67q0 -27 -18.5 -42.5t-39.5 -11.5q-74 39 -159 39q-82 0 -143.5 -33.5t-93.5 -86t-47 -102.5t-15 -95q0 -166 87 -246t210 -80q106 0 200 39 q-14 -74 -55 -96q-61 -31 -174 -31l-16 -129q-6 -47 -41 -49l-62 -6l25 194q-43 10 -83 30t-91.5 60.5t-83 116.5t-31.5 174z" />
<glyph unicode="&#xa3;" d="M57 43q164 164 164 521v18q-96 0 -110 24q37 37 114 56q8 326 97.5 460.5t269.5 134.5q104 0 170 -61q2 -25 -14.5 -42t-38.5 -11q-70 33 -134 33q-74 0 -123 -38t-74.5 -114t-34.5 -159t-11 -201q373 0 393 4q-16 -76 -84 -82q-18 -4 -313 -4q-2 -332 -150 -500 q59 -29 187.5 -52.5t209.5 -23.5q176 0 261 35l6 -6q-18 -55 -49 -80q-59 -39 -215 -39q-248 0 -521 109v18z" />
<glyph unicode="&#xa4;" d="M57 207q61 72 107 137q-98 96 -98 256q0 129 96 242l-32 38l-40 48q-20 33 -10 57q20 47 37 47q6 0 12 -6q4 -4 44 -50l63 -71q90 61 210 62h3q125 0 204 -66l113 131q39 -51 39 -69q0 -8 -4 -19.5t-16 -25.5l-19 -25q-8 -10 -26.5 -30.5t-26.5 -31.5q68 -90 67 -210 q0 -158 -88 -250l44 -48l39 -42q13 -14 25.5 -29.5t16.5 -26.5q-6 -25 -23.5 -45t-31.5 -20q-10 0 -146 149q-82 -61 -206 -61q-86 0 -170 41q-12 -16 -78 -99q-27 -37 -50 -36q-5 0 -10 2q-33 12 -45 51zM170 610q0 -125 66.5 -203.5t191.5 -78.5q117 0 182.5 80.5 t65.5 205.5q0 119 -68.5 196t-185.5 77h-2q-117 0 -183.5 -83t-66.5 -194z" />
<glyph unicode="&#xa5;" d="M31 1194v8q55 16 92 17q20 0 33 -21l293 -498q270 440 321 517q33 0 66 -11q16 -5 15 -16q0 -6 -5 -14l-336 -517h276q-2 -25 -24.5 -49t-42.5 -24h-230v-178h269q0 -29 -18.5 -51.5t-51.5 -22.5h-199v-334q-35 -12 -71 -12q-16 0 -24.5 6t-8.5 29v311h-285q0 53 21 74 h264v178h-293q0 16 8.5 41.5t16.5 31.5h250q-227 381 -336 535z" />
<glyph unicode="&#xa6;" horiz-adv-x="532" d="M215 -358v716h102v-716h-102zM215 666v716h102v-716h-102z" />
<glyph unicode="&#xa7;" horiz-adv-x="872" d="M78 795q0 227 198 381q100 135 254 135q92 0 136 -43q9 -12 9 -24q0 -20 -26 -42q-53 33 -129 33q-174 0 -174 -160q0 -29 14.5 -62.5t42.5 -71.5l50 -63q20 -26 58 -66l48 -50q133 -147 170 -211q62 -107 62 -228q0 -225 -187 -419q-33 -74 -106.5 -112t-159.5 -38 q-109 0 -141 37q-12 6 -23.5 31.5t-5.5 50.5q68 -41 176 -41q90 0 139 43t49 119q0 33 -15 71.5t-47 83t-54.5 72t-66.5 75.5t-54 60q-106 123 -161.5 221.5t-55.5 215.5v2zM168 819q0 -168 199 -389q4 -6 37.5 -41t41.5 -44l36 -42q28 -33 37 -47t30.5 -43t30 -48.5 l20.5 -46t16.5 -50t4.5 -48.5q84 123 84 254v2q0 106 -52.5 197.5t-144.5 192.5q-12 14 -55 61l-60.5 67.5t-49.5 63.5t-46 74t-26 72q-10 35 -9 67v12q-94 -106 -94 -264z" />
<glyph unicode="&#xa8;" horiz-adv-x="819" d="M178 1171q0 35 21.5 58.5t56.5 23.5h2q29 0 49.5 -22.5t20.5 -52.5q0 -39 -21.5 -60.5t-54.5 -21.5q-31 0 -52.5 19t-21.5 56zM492 1171.5q0 36.5 20 59t57 22.5h2q31 0 50.5 -22.5t19.5 -52.5q0 -39 -21.5 -60.5t-56.5 -21.5q-29 0 -50 19.5t-21 56z" />
<glyph unicode="&#xa9;" horiz-adv-x="1368" d="M78 647q0 285 175 464t435 179h2q268 0 434 -185t166 -458q0 -285 -173 -464t-429 -179q-260 0 -435 179t-175 464zM170 647q0 -238 145.5 -405.5t376.5 -167.5q225 0 365.5 164.5t140.5 410.5q0 236 -137 404t-371 168h-2q-229 0 -373.5 -165t-144.5 -409zM389 643 q0 147 98.5 244.5t257.5 97.5q59 0 117 -18.5t76 -36.5q0 -25 -14 -43q-14 -14 -39 -4q-76 33 -152 32q-92 0 -171 -66.5t-79 -195.5q0 -125 72 -195.5t203 -70.5q82 0 164 33l4 -4q-4 -35 -37 -68q-74 -37 -164 -37q-145 0 -240.5 91t-95.5 241z" />
<glyph unicode="&#xaa;" horiz-adv-x="600" d="M61 707q0 145 263 202l71 15v34q0 137 -119 138q-72 0 -153 -70q-25 -23 -39 16l-10 21q18 35 85.5 71.5t137.5 36.5q193 0 192 -206q0 -33 -1 -140.5t-1 -126.5q0 -63 43 -63q20 0 45 6l-2 -27q-14 -43 -69 -47q-82 0 -103 74q-68 -76 -174 -78h-7q-71 0 -114 40 q-45 43 -45 104zM162 723v-2q0 -37 28.5 -60.5t67.5 -23.5q41 0 79 23.5t50 58.5q8 29 8 51v90q-233 -35 -233 -137z" />
<glyph unicode="&#xab;" horiz-adv-x="1085" d="M102 473q160 168 283 373q12 -8 24.5 -30.5t12.5 -43.5v-2q0 -20 -42 -86t-97.5 -140.5t-63.5 -88.5l61 -88q56 -82 94 -148.5t38 -91.5q0 -59 -41 -68q-154 246 -258 365q-11 24 -11 49zM438 473q223 272 301 404q35 -45 35 -86q0 -25 -45 -93.5t-109.5 -154.5 t-64.5 -88q43 -57 127 -187.5t84 -158.5v-3q0 -49 -45 -73q-121 221 -266 389q-17 22 -17 51z" />
<glyph unicode="&#xac;" horiz-adv-x="1148" d="M123 649q2 47 16.5 64.5t48.5 17.5h822l14 -16v-482q0 -27 -17.5 -41t-33 -16t-43.5 -2v475h-807z" />
<glyph unicode="&#xad;" horiz-adv-x="589" d="M66 397q31 96 65 101q264 31 387 61l4 -4q-12 -47 -37.5 -74.5t-83.5 -42.5q-49 -14 -159.5 -29.5t-171.5 -17.5z" />
<glyph unicode="&#xae;" horiz-adv-x="641" d="M61 1049q0 113 70 187.5t186 74.5h2q115 0 188 -74t73 -188q0 -111 -72 -184.5t-191 -73.5q-117 0 -186.5 73.5t-69.5 184.5zM121 1051q0 -94 55 -153.5t143 -59.5q86 0 142.5 59t56.5 154q0 90 -56 149.5t-147 59.5h-2q-82 0 -137 -59.5t-55 -149.5zM223 915v265 q82 8 86 8q115 0 115 -82q0 -47 -57 -68q51 -88 79 -114v-6q-16 -4 -36.5 -4.5t-34.5 18.5q-23 29 -45 69q-12 23 -54 21v-80q0 -23 -14 -24q-27 -1 -39 -3zM276 1057q39 0 56 4q35 8 35 45q0 43 -56 43q-29 0 -35 -2v-90z" />
<glyph unicode="&#xaf;" horiz-adv-x="819" d="M205 1139q0 18 10 40.5t18 28.5h361q23 0 22 -14q0 -10 -12 -38t-22 -40h-353q-24 0 -24 23z" />
<glyph unicode="&#xb0;" horiz-adv-x="559" d="M68 1012q0 90 59 155.5t149 65.5h3q94 0 153.5 -61.5t59.5 -157.5q0 -98 -60.5 -156.5t-163.5 -58.5q-76 0 -138 56.5t-62 156.5zM164 1016q0 -66 34 -104q33 -38 85 -38q115 0 114 134q0 59 -30.5 103t-87.5 44h-3q-51 0 -81.5 -40t-30.5 -99z" />
<glyph unicode="&#xb1;" horiz-adv-x="1148" d="M123 618q4 82 65 82h338v234q0 78 -6 131l55 10q8 2 15 2q17 0 22 -12q8 -16 9 -57v-308h403q-4 -82 -66 -82h-337v-356q0 -49 -58 -57l-37 -4v417h-403zM125 0q4 82 63 82h838q-4 -82 -65 -82h-836z" />
<glyph unicode="&#xb2;" horiz-adv-x="569" d="M43 895q25 45 29 53l151 135q47 43 96.5 114t49.5 128q0 61 -35 94t-92 33q-104 0 -183 -78l-4 2q0 20 17 76q80 84 194 84q94 0 152.5 -55.5t58.5 -151.5q0 -31 -10 -61.5t-33 -62.5l-41 -56q-18 -25 -55 -57l-54 -50q-17 -16 -57.5 -48.5t-48.5 -39.5q64 -3 124 -2 q120 0 224 11q0 -41 -53 -76q-49 -12 -168 -13q-186 0 -258 13z" />
<glyph unicode="&#xb3;" horiz-adv-x="569" d="M61 909l2 4q53 -20 132 -20q96 0 149 41t53 104q0 125 -151 125q-47 0 -88 -10l-6 8q20 39 30 53q84 14 131 44t47 94q0 49 -32.5 76.5t-81.5 27.5q-33 0 -76 -20.5t-68 -44.5q-23 14 -22 36q0 18 16 33q78 72 172 72q80 0 132.5 -42t52.5 -120q0 -94 -103 -153 q145 -37 146 -170q0 -100 -87 -162t-202 -62q-96 0 -125 33q-21 20 -21 53z" />
<glyph unicode="&#xb4;" horiz-adv-x="819" d="M354 1063q-3 4 -3 11q0 15 14 42q33 72 90 172.5t71 100.5h2q16 0 41 -12.5t37 -26.5q7 -6 7 -14q0 -11 -13 -25q-92 -106 -207 -283q-16 8 -39 35z" />
<glyph unicode="&#xb5;" horiz-adv-x="1015" d="M139 -348l17 647v352q0 137 -9 236q47 18 91 18q8 0 12 -7t6 -35.5t2 -86.5q2 -135 2 -444q0 -262 217 -262q88 0 164 49t104 106v604q0 55 25 64q49 12 86 12q0 -8 -3 -136t-3 -232v-344q0 -133 104 -146v-6q-2 -20 -23.5 -43t-47.5 -23q-49 0 -88 42t-41 110 q-135 -150 -303 -150q-158 4 -218 111l15 -532h-23q-61 8 -74 24q-12 14 -12 58v14z" />
<glyph unicode="&#xb6;" horiz-adv-x="983" d="M100 811q0 186 120 298t304 112h199h184l2 -9q-25 -41 -57 -65q-16 -4 -123 -10v-643q0 -254 -26.5 -371t-92.5 -184q-98 -94 -241 -95q-90 0 -156 37t-66 70q0 25 27 59q86 -84 205 -84q143 0 197.5 109.5t54.5 361.5v90l-129 -38q-33 -10 -70 -11q-141 0 -236.5 107.5 t-95.5 265.5z" />
<glyph unicode="&#xb7;" horiz-adv-x="292" d="M63 485q0 41 23 68t64 27h2q35 0 57 -26t22 -60q0 -41 -22.5 -68t-61.5 -27q-33 0 -58.5 22.5t-25.5 63.5z" />
<glyph unicode="&#xb8;" horiz-adv-x="821" d="M293 -395.5q0 12.5 18 16.5q156 43 156 117q0 43 -49 62.5t-117 19.5v6l123 182h92l-80 -119q127 -31 127 -141q0 -74 -72.5 -124t-160.5 -66q-14 2 -25.5 18t-11.5 28.5z" />
<glyph unicode="&#xb9;" horiz-adv-x="569" d="M121 1389l24 53q102 25 234 94l14 -6q0 -12 -2 -132t-3 -263.5t-1 -229.5q0 -33 -45 -35l-51 -4q6 43 6 551q-82 -29 -172 -35z" />
<glyph unicode="&#xba;" horiz-adv-x="700" d="M51 858q0 135 85 224t214 89h2q137 0 217 -81.5t80 -217t-82 -222.5t-215 -87q-154 0 -227.5 92t-73.5 203zM156 868q0 -117 60 -174t138 -57q80 0 135.5 59.5t55.5 180.5q0 96 -52.5 158.5t-146.5 62.5h-2q-78 0 -133 -64t-55 -166z" />
<glyph unicode="&#xbb;" horiz-adv-x="1085" d="M311 121q0 18 32 69.5t66 98.5l76 104q43 57 45 62q-43 57 -127 187t-84 159v2q0 53 46 74q127 -229 266 -388q16 -27 16 -51q-217 -266 -299 -403q-37 41 -37 86zM664 139q0 23 42 87.5t97 140t63 88.5l-60 88q-56 82 -94 148.5t-38 90.5q0 59 41 68q145 -238 258 -363 q10 -27 10 -49q-158 -166 -283 -372q-12 8 -24 30.5t-12 40.5v2z" />
<glyph unicode="&#xbc;" horiz-adv-x="1300" d="M102 1090l27 49q109 27 238 94l10 -6q0 -10 -1 -131t-2 -264.5t-1 -229.5q0 -33 -45 -35l-52 -4q4 29 5 551q-90 -29 -172 -33zM203 -14l778 1274q10 16 21 15q10 0 22 -13q18 -25 23 -45l-777 -1274q-10 -16 -22 -17q-7 0 -15 6q-26 25 -30 54zM670 225q51 84 156.5 216 t162.5 190q14 14 58.5 33.5t74.5 25.5l4 -8q-203 -199 -362 -442q45 -6 240 -11l4 168q31 23 77 33h9v-199q45 0 96 11l2 -6q-8 -33 -41 -62q-4 -2 -57 -12v-156q-66 -16 -88 -20l-9 6q6 68 7 168q-231 0 -302 14q-32 33 -32 51z" />
<glyph unicode="&#xbd;" horiz-adv-x="1300" d="M90 1083l27 56q109 27 237 94l11 -6q0 -10 -1.5 -131t-2.5 -264.5t-1 -229.5q0 -33 -45 -35l-51 -4q4 29 4 551q-96 -31 -176 -35zM162 -14l780 1274q10 16 20 15q10 0 21 -13q20 -23 25 -45l-779 -1272q-10 -18 -21 -19q-8 0 -15 8q-27 21 -31 52zM735 14q20 31 31 54 l153 134q50 46 98 115.5t48 126.5q0 61 -35 94t-92 33q-41 0 -94 -25.5t-88 -60.5l-6 4q-2 14 -2 27q0 37 18 55q80 84 195 84h2q94 0 151 -54t57 -150q0 -31 -9 -63t-32 -63l-40 -57q-18 -25 -55 -57l-54 -49l-56 -48l-48 -40q74 -3 140 -3q115 0 204 9q0 -45 -50 -72 q-47 -14 -170 -14q-190 0 -262 12z" />
<glyph unicode="&#xbe;" horiz-adv-x="1300" d="M96 608l2 4q61 -20 133 -20q96 0 148.5 42t52.5 105q0 123 -153 123q-49 0 -91 -10l-4 6q14 33 33 55q51 10 83 21.5t59.5 41.5t27.5 75q0 49 -30.5 75.5t-77.5 26.5q-72 0 -140 -63q-23 14 -22 36q0 14 20 35q68 68 166 68h2q78 0 128 -42t50 -118q0 -86 -98 -154 q147 -37 147 -167q0 -104 -86 -166t-200 -62q-94 0 -127 33q-19 22 -23 55zM250 -14l776 1274q10 16 21 15q10 0 22 -13q18 -25 23 -45l-775 -1272q-12 -18 -23 -19q-7 0 -13 8q-31 23 -31 52zM686 225q53 88 158.5 220.5t161.5 185.5q12 12 58 32.5t75 26.5l6 -8 q-203 -199 -363 -442q45 -6 238 -11l4 168q35 25 78 35h8v-201q45 0 96 11l4 -6q-20 -43 -43 -62q-4 -2 -57 -12v-156q-66 -16 -88 -20l-8 6q6 53 6 168q-233 0 -299 14q-35 35 -35 51z" />
<glyph unicode="&#xbf;" horiz-adv-x="610" d="M74 -109q0 117 137 289q100 131 100 223q0 57 -20 97q20 23 53 22q10 0 23.5 -10t28 -39t14.5 -70q0 -106 -103 -251q-4 -4 -20.5 -28t-23.5 -35l-22 -34q-15 -23 -23 -39l-16 -36q-9 -20 -13.5 -41t-4.5 -39q0 -70 39 -113t113 -43q100 0 180 68h6q35 -12 31 -62 q-109 -102 -238 -102h-2q-111 0 -175 70.5t-64 172.5zM246 827q0 37 23.5 61.5t60.5 24.5q29 0 53.5 -22.5t24.5 -59t-25 -60t-64 -23.5h-2q-31 0 -51 25t-20 54z" />
<glyph unicode="&#xc0;" horiz-adv-x="1261" d="M33 10l2 13q84 166 282 599l263 576l-31 70q41 18 72 18q35 0 47 -31q350 -803 383 -872l70 -155l62 -134l38 -76v-10q-55 -20 -88 -20q-16 0 -28.5 12t-27.5 45l-178 397h-559q-145 -326 -201 -434q-10 -20 -35 -20q-38 -1 -71 22zM369 1542q10 23 35.5 45.5t44.5 22.5 h2q27 0 123 -56.5t149 -103.5q25 -16 6 -35q-4 -6 -31 -33q-170 94 -321 142q-12 4 -12 10q0 4 4 8zM377 528h487l-239 562z" />
<glyph unicode="&#xc1;" horiz-adv-x="1261" d="M33 10l2 13q84 166 282 599l263 576l-31 70q41 18 72 18q35 0 47 -31q350 -803 383 -872l70 -155l62 -134l38 -76v-10q-55 -20 -88 -20q-16 0 -28.5 12t-27.5 45l-178 397h-559q-145 -326 -201 -434q-10 -20 -35 -20q-38 -1 -71 22zM377 528h487l-239 562zM530 1395 q-3 7 -2 13q0 16 19 28q63 41 171.5 97t137.5 58q16 -6 39 -31.5t27 -41.5q3 -8 3 -14q0 -18 -28 -23q-80 -23 -342 -119q-17 10 -25 33z" />
<glyph unicode="&#xc2;" horiz-adv-x="1261" d="M33 10l2 13q84 166 282 599l263 576l-31 70q41 18 72 18q35 0 47 -31q350 -803 383 -872l70 -155l62 -134l38 -76v-10q-55 -20 -88 -20q-16 0 -28.5 12t-27.5 45l-178 397h-559q-145 -326 -201 -434q-10 -20 -35 -20q-38 -1 -71 22zM377 528h487l-239 562zM399 1391 q104 88 195 196q12 10 27 21q16 6 30 6q104 -117 230 -213q-8 -16 -26.5 -27.5t-33.5 -11.5q-27 0 -41 12q-41 29 -143 129q-59 -68 -133 -127q-25 -14 -41 -14h-2q-25 0 -62 29z" />
<glyph unicode="&#xc3;" horiz-adv-x="1261" d="M33 10l2 13q84 166 282 599l263 576l-31 70q41 18 72 18q35 0 47 -31q350 -803 383 -872l70 -155l62 -134l38 -76v-10q-55 -20 -88 -20q-16 0 -28.5 12t-27.5 45l-178 397h-559q-145 -326 -201 -434q-10 -20 -35 -20q-38 -1 -71 22zM377 528h487l-239 562zM397 1401 q33 193 146 192h2q59 0 114 -71q45 -55 62 -56q33 0 51 105q6 23 22.5 22.5t55.5 -30.5q-25 -188 -135 -189q-31 0 -53.5 19.5t-61.5 66.5q-39 45 -61 45q-33 0 -62 -100q-4 -23 -18 -23q-13 1 -62 19z" />
<glyph unicode="&#xc4;" horiz-adv-x="1261" d="M33 10l2 13q84 166 282 599l263 576l-31 70q41 18 72 18q35 0 47 -31q350 -803 383 -872l70 -155l62 -134l38 -76v-10q-55 -20 -88 -20q-16 0 -28.5 12t-27.5 45l-178 397h-559q-145 -326 -201 -434q-10 -20 -35 -20q-38 -1 -71 22zM375 1440q0 35 21.5 58.5t56.5 23.5h2 q31 0 51 -22.5t20 -55.5q0 -39 -21.5 -60.5t-54 -21.5t-54 19.5t-21.5 58.5zM377 528h487l-239 562zM739 1440q0 35 21.5 58.5t58.5 23.5h2q31 0 51.5 -22.5t20.5 -55.5q0 -39 -21.5 -60.5t-58.5 -21.5q-29 0 -51.5 19.5t-22.5 58.5z" />
<glyph unicode="&#xc5;" horiz-adv-x="1261" d="M33 10l2 13q84 166 282 599l263 576l-31 70q41 18 72 18q35 0 47 -31q350 -803 383 -872l70 -155l62 -134l38 -76v-10q-55 -20 -88 -20q-16 0 -28.5 12t-27.5 45l-178 397h-559q-145 -326 -201 -434q-10 -20 -35 -20q-38 -1 -71 22zM377 528h487l-239 562zM473 1517.5 q0 69.5 44 117.5t118 48h2q66 0 112 -46t46 -113q0 -74 -45 -118t-121 -44q-66 0 -111 43t-45 112.5zM555 1522q0 -39 22.5 -64.5t57.5 -25.5q39 0 59.5 26.5t20.5 61.5q0 94 -84 94h-2q-35 0 -54.5 -28.5t-19.5 -63.5z" />
<glyph unicode="&#xc6;" horiz-adv-x="1599" d="M18 16l668 1176q16 27 33 65q57 14 100 21h672q0 -31 -25 -61q-16 -23 -71 -23h-467l26 -576h514q-10 -84 -79 -83h-433l25 -447q82 -16 295 -16q223 0 299 10l2 -4q-12 -68 -78 -82q-49 -8 -225 -8q-272 0 -375 20l-33 41l-16 490h-430q-260 -477 -295 -531 q-20 -33 -35 -33q-33 0 -70 31zM463 618h381l-23 574q-41 0 -65 -45z" />
<glyph unicode="&#xc7;" horiz-adv-x="1185" d="M84 635q0 299 199.5 487.5t498.5 188.5q135 0 233.5 -35t129.5 -74q-6 -35 -30.5 -50t-59.5 1q-113 66 -287 66q-233 0 -396 -156t-163 -422q0 -256 150.5 -419t433.5 -163q86 0 183 23.5t140 48.5l4 -4q-4 -23 -20.5 -52.5t-36.5 -41.5q-86 -59 -270 -62l-56 -80 q127 -33 127 -143q0 -74 -72.5 -124t-160.5 -64q-14 2 -25.5 19.5t-11.5 31.5q0 10 18 16q156 49 156 111q0 80 -166 84v4l98 147q-297 20 -456.5 194.5t-159.5 467.5z" />
<glyph unicode="&#xc8;" horiz-adv-x="878" d="M156 1249q49 20 92 29h540q0 -41 -36 -72q-27 -14 -136 -14h-344v-492h504q-12 -57 -36.5 -71.5t-82.5 -14.5h-385v-522q49 -18 299 -18q203 0 279 10l4 -4q-27 -74 -82 -84q-49 -8 -219 -8q-283 0 -367 22l-26 35v946q0 188 -4 258zM219 1522q10 23 36 45t44 22h2 q27 0 123 -56t149 -103q14 -9 14 -20q0 -8 -7 -15q-4 -6 -31 -33q-170 94 -322 141q-12 4 -12 11q0 4 4 8z" />
<glyph unicode="&#xc9;" horiz-adv-x="878" d="M156 1249q49 20 92 29h540q0 -41 -36 -72q-27 -14 -136 -14h-344v-492h504q-12 -57 -36.5 -71.5t-82.5 -14.5h-385v-522q49 -18 299 -18q203 0 279 10l4 -4q-27 -74 -82 -84q-49 -8 -219 -8q-283 0 -367 22l-26 35v946q0 188 -4 258zM365 1395q-3 7 -3 13q0 16 19 28 q63 41 172 97t137 58q16 -6 39 -31.5t27 -41.5q3 -8 3 -14q0 -18 -28 -23q-80 -23 -342 -119q-16 10 -24 33z" />
<glyph unicode="&#xca;" horiz-adv-x="878" d="M156 1249q49 20 92 29h540q0 -41 -36 -72q-27 -14 -136 -14h-344v-492h504q-12 -57 -36.5 -71.5t-82.5 -14.5h-385v-522q49 -18 299 -18q203 0 279 10l4 -4q-27 -74 -82 -84q-49 -8 -219 -8q-283 0 -367 22l-26 35v946q0 188 -4 258zM248 1407q104 88 194 197 q12 10 27 20q16 6 31 6q104 -117 229 -213q-8 -16 -26.5 -27.5t-32.5 -11.5q-27 0 -41 13q-41 29 -144 129q-59 -68 -133 -127q-25 -14 -41 -15h-2q-24 0 -61 29z" />
<glyph unicode="&#xcb;" horiz-adv-x="878" d="M156 1249q49 20 92 29h540q0 -41 -36 -72q-27 -14 -136 -14h-344v-492h504q-12 -57 -36.5 -71.5t-82.5 -14.5h-385v-522q49 -18 299 -18q203 0 279 10l4 -4q-27 -74 -82 -84q-49 -8 -219 -8q-283 0 -367 22l-26 35v946q0 188 -4 258zM215 1460q0 35 21.5 58.5t56.5 23.5 h2q31 0 51.5 -22.5t20.5 -55.5q0 -39 -21.5 -60.5t-54.5 -21.5t-54.5 19.5t-21.5 58.5zM580 1460q0 35 21.5 58.5t57.5 23.5h3q31 0 51 -22.5t20 -55.5q0 -39 -21.5 -60.5t-58.5 -21.5q-29 0 -51 19.5t-22 58.5z" />
<glyph unicode="&#xcc;" horiz-adv-x="430" d="M-27 1522q10 23 36 45t44 22h2q27 0 123 -56t150 -103q14 -9 14 -20q0 -8 -8 -15q-4 -6 -31 -33q-170 94 -321 141q-12 4 -12 11q-1 4 3 8zM154 1270q55 16 94 16q16 0 20 -17.5t4 -84.5v-930q0 -127 7 -250q-45 -16 -95 -16q-25 0 -24 37v987q0 203 -6 258z" />
<glyph unicode="&#xcd;" horiz-adv-x="430" d="M88 1395q-3 7 -3 13q0 16 19 28q63 41 172 97t138 58q16 -6 38.5 -31.5t26.5 -41.5q3 -8 3 -14q0 -18 -27 -23q-80 -23 -342 -119q-17 10 -25 33zM154 1270q55 16 94 16q16 0 20 -17.5t4 -84.5v-930q0 -127 7 -250q-45 -16 -95 -16q-25 0 -24 37v987q0 203 -6 258z" />
<glyph unicode="&#xce;" horiz-adv-x="430" d="M-23 1391q104 88 195 196q12 10 27 21q16 6 30 6q104 -117 230 -213q-8 -16 -26.5 -27.5t-33.5 -11.5q-27 0 -41 12q-41 29 -143 129q-59 -68 -133 -127q-25 -14 -41 -14h-2q-25 0 -62 29zM154 1270q55 16 94 16q16 0 20 -17.5t4 -84.5v-930q0 -127 7 -250 q-45 -16 -95 -16q-25 0 -24 37v987q0 203 -6 258z" />
<glyph unicode="&#xcf;" horiz-adv-x="430" d="M-41 1440q0 35 21.5 58.5t56.5 23.5h2q31 0 51.5 -22.5t20.5 -55.5q0 -39 -21.5 -60.5t-54.5 -21.5t-54.5 19.5t-21.5 58.5zM154 1270q55 16 94 16q16 0 20 -17.5t4 -84.5v-930q0 -127 7 -250q-45 -16 -95 -16q-25 0 -24 37v987q0 203 -6 258zM324 1440q0 35 21.5 58.5 t57.5 23.5h3q31 0 51 -22.5t20 -55.5q0 -39 -21.5 -60.5t-58.5 -21.5q-29 0 -51 19.5t-22 58.5z" />
<glyph unicode="&#xd0;" horiz-adv-x="1329" d="M-8 616q10 84 92 84h96v312q0 180 -4 252l94 14q137 16 236 16q188 0 329.5 -43t220.5 -106.5t127 -153.5t62.5 -165.5t14.5 -161.5q0 -328 -226 -523q-195 -162 -506 -161q-174 0 -348 49v587h-188zM293 90q100 -33 244 -33q258 0 428 148.5t170 443.5q0 256 -156 409.5 t-481 153.5q-100 0 -205 -16v-496h397q-12 -51 -42 -67.5t-89 -16.5h-266v-526z" />
<glyph unicode="&#xd1;" horiz-adv-x="1351" d="M117 1262v8q43 16 88 16q23 0 45 -35q31 -35 112 -141l216 -281l239 -309q217 -276 279 -377q-10 250 -11 508v568q0 53 37 59q57 8 64 8q-6 -131 -6 -377v-909q-27 -27 -64 -27q-2 0 -8 2t-8 2l-631 824q-162 215 -205 278q10 -348 10 -495v-521q0 -39 -8 -50t-30 -17 q-35 -8 -60 -8q6 123 6 372v818zM455 1362q33 193 145 192h2q59 0 115 -71q45 -55 61 -56q33 0 51 105q6 23 22.5 22.5t55.5 -30.5q-25 -188 -135 -189q-31 0 -53.5 19.5t-61.5 66.5q-39 45 -61 45q-33 0 -61 -100q-4 -23 -19 -23q-12 1 -61 19z" />
<glyph unicode="&#xd2;" horiz-adv-x="1458" d="M84 621q0 299 175 494.5t468 195.5h2q283 0 464 -188.5t181 -471.5q0 -133 -40 -252.5t-115.5 -217t-201.5 -155t-284 -57.5q-137 0 -249.5 43t-185.5 110.5t-122 155t-70.5 173.5t-21.5 170zM209 633q0 -266 161.5 -425t370.5 -159q225 0 366.5 152.5t141.5 445.5 q0 254 -150.5 419t-379.5 165h-2q-227 0 -367.5 -162t-140.5 -436zM512 1548q10 23 35.5 45.5t44.5 22.5h2q27 0 123 -56.5t149 -103.5q14 -9 14 -19q0 -8 -8 -16q-4 -6 -30 -32q-170 94 -322 141q-12 4 -12 10q0 4 4 8z" />
<glyph unicode="&#xd3;" horiz-adv-x="1458" d="M84 621q0 299 175 494.5t468 195.5h2q283 0 464 -188.5t181 -471.5q0 -133 -40 -252.5t-115.5 -217t-201.5 -155t-284 -57.5q-137 0 -249.5 43t-185.5 110.5t-122 155t-70.5 173.5t-21.5 170zM209 633q0 -266 161.5 -425t370.5 -159q225 0 366.5 152.5t141.5 445.5 q0 254 -150.5 419t-379.5 165h-2q-227 0 -367.5 -162t-140.5 -436zM596 1413q-3 7 -3 13q0 16 19 28q63 41 172 97.5t138 58.5q16 -6 38.5 -32t26.5 -42q3 -8 3 -14q0 -18 -27 -23q-80 -23 -342 -119q-17 10 -25 33z" />
<glyph unicode="&#xd4;" horiz-adv-x="1458" d="M84 621q0 299 175 494.5t468 195.5h2q283 0 464 -188.5t181 -471.5q0 -133 -40 -252.5t-115.5 -217t-201.5 -155t-284 -57.5q-137 0 -249.5 43t-185.5 110.5t-122 155t-70.5 173.5t-21.5 170zM209 633q0 -266 161.5 -425t370.5 -159q225 0 366.5 152.5t141.5 445.5 q0 254 -150.5 419t-379.5 165h-2q-227 0 -367.5 -162t-140.5 -436zM492 1427q104 88 194 197q10 10 27 21q16 6 30 6q104 -117 230 -213q-6 -16 -25.5 -27.5t-34.5 -11.5q-25 0 -41 12q-41 29 -143 129q-59 -68 -133 -127q-25 -14 -41 -14h-2q-24 -1 -61 28z" />
<glyph unicode="&#xd5;" horiz-adv-x="1458" d="M84 621q0 299 175 494.5t468 195.5h2q283 0 464 -188.5t181 -471.5q0 -133 -40 -252.5t-115.5 -217t-201.5 -155t-284 -57.5q-137 0 -249.5 43t-185.5 110.5t-122 155t-70.5 173.5t-21.5 170zM209 633q0 -266 161.5 -425t370.5 -159q225 0 366.5 152.5t141.5 445.5 q0 254 -150.5 419t-379.5 165h-2q-227 0 -367.5 -162t-140.5 -436zM487 1427q33 193 146 193h2q59 0 115 -72q45 -55 61 -55q33 0 51 104q6 23 22.5 23t55.5 -31q-25 -188 -135 -188q-31 0 -53.5 19.5t-61.5 66.5q-39 45 -61 45q-33 0 -62 -100q-4 -23 -18 -23q-13 0 -62 18 z" />
<glyph unicode="&#xd6;" horiz-adv-x="1458" d="M84 621q0 299 175 494.5t468 195.5h2q283 0 464 -188.5t181 -471.5q0 -133 -40 -252.5t-115.5 -217t-201.5 -155t-284 -57.5q-137 0 -249.5 43t-185.5 110.5t-122 155t-70.5 173.5t-21.5 170zM209 633q0 -266 161.5 -425t370.5 -159q225 0 366.5 152.5t141.5 445.5 q0 254 -150.5 419t-379.5 165h-2q-227 0 -367.5 -162t-140.5 -436zM473 1481q0 35 21.5 58.5t56.5 23.5h2q31 0 51.5 -22.5t20.5 -55.5q0 -39 -21.5 -60.5t-54.5 -21.5t-54.5 19.5t-21.5 58.5zM838 1481q0 35 21.5 58.5t58.5 23.5h2q31 0 51 -22.5t20 -55.5 q0 -39 -21.5 -60.5t-58.5 -21.5q-29 0 -51 19.5t-22 58.5z" />
<glyph unicode="&#xd7;" horiz-adv-x="1148" d="M168 891q12 27 39 41l358 -373l330 344q18 21 38 21q11 0 21 -6q12 -8 22.5 -22.5t12.5 -14.5l-364 -381l333 -353q29 -23 5 -53q-25 -25 -45 -33l-359 381l-352 -381q-16 10 -35 45q-10 27 10 56l322 338l-334 346q-8 8 -8 20q0 11 6 25z" />
<glyph unicode="&#xd8;" horiz-adv-x="1458" d="M82 618q0 299 177 496t470 197q207 0 365 -107l100 131q19 23 34 23q8 0 15 -6q27 -25 27 -56l-111 -143q106 -92 160.5 -225t54.5 -277q0 -131 -39 -249.5t-113.5 -217t-201.5 -157t-289 -58.5q-233 0 -391 125l-121 -162q-11 -14 -21 -14q-9 0 -18 10q-31 37 -37 52 l133 172q-98 94 -146 220.5t-48 245.5zM207 631q0 -236 135 -395l692 892q-133 102 -313 103q-225 0 -369.5 -166t-144.5 -434zM403 174q141 -125 330 -125q229 0 372.5 152.5t143.5 451.5q0 264 -149 418z" />
<glyph unicode="&#xd9;" horiz-adv-x="1337" d="M147 1270q55 16 89 16q20 0 25 -16.5t5 -87.5v-588q0 -537 406 -537q68 0 119 10.5t109 44t95 93t61.5 167t24.5 255.5v602q0 41 35 49q25 2 34 4t13 3t23 1q-6 -116 -6 -368v-287q0 -172 -36 -299t-87 -194.5t-128 -107.5t-137.5 -50.5t-136.5 -10.5q-109 0 -193.5 29 t-157.5 95.5t-111.5 194.5t-38.5 312v410q-1 203 -7 260zM438 1505q10 23 36 45.5t44 22.5h2q27 0 123 -56.5t150 -103.5q14 -9 14 -19q0 -8 -8 -16q-4 -6 -31 -32q-170 94 -322 141q-12 4 -11 10q-1 4 3 8z" />
<glyph unicode="&#xda;" horiz-adv-x="1337" d="M147 1270q55 16 89 16q20 0 25 -16.5t5 -87.5v-588q0 -537 406 -537q68 0 119 10.5t109 44t95 93t61.5 167t24.5 255.5v602q0 41 35 49q25 2 34 4t13 3t23 1q-6 -116 -6 -368v-287q0 -172 -36 -299t-87 -194.5t-128 -107.5t-137.5 -50.5t-136.5 -10.5q-109 0 -193.5 29 t-157.5 95.5t-111.5 194.5t-38.5 312v410q-1 203 -7 260zM522 1395q-3 7 -3 13q0 16 20 28q63 41 171.5 97t137.5 58q16 -6 38.5 -31.5t26.5 -41.5q3 -8 3 -14q0 -18 -27 -23q-80 -23 -342 -119q-17 10 -25 33z" />
<glyph unicode="&#xdb;" horiz-adv-x="1337" d="M147 1270q55 16 89 16q20 0 25 -16.5t5 -87.5v-588q0 -537 406 -537q68 0 119 10.5t109 44t95 93t61.5 167t24.5 255.5v602q0 41 35 49q25 2 34 4t13 3t23 1q-6 -116 -6 -368v-287q0 -172 -36 -299t-87 -194.5t-128 -107.5t-137.5 -50.5t-136.5 -10.5q-109 0 -193.5 29 t-157.5 95.5t-111.5 194.5t-38.5 312v410q-1 203 -7 260zM434 1391q104 88 195 196q10 10 26 21q16 6 31 6q104 -117 229 -213q-6 -16 -25.5 -27.5t-33.5 -11.5q-25 0 -41 12q-41 29 -143 129q-59 -68 -133 -127q-25 -14 -41 -14h-2q-25 0 -62 29z" />
<glyph unicode="&#xdc;" horiz-adv-x="1337" d="M147 1270q55 16 89 16q20 0 25 -16.5t5 -87.5v-588q0 -537 406 -537q68 0 119 10.5t109 44t95 93t61.5 167t24.5 255.5v602q0 41 35 49q25 2 34 4t13 3t23 1q-6 -116 -6 -368v-287q0 -172 -36 -299t-87 -194.5t-128 -107.5t-137.5 -50.5t-136.5 -10.5q-109 0 -193.5 29 t-157.5 95.5t-111.5 194.5t-38.5 312v410q-1 203 -7 260zM414 1440q0 35 21.5 58.5t56.5 23.5h2q31 0 51 -22.5t20 -55.5q0 -39 -21.5 -60.5t-54 -21.5t-54 19.5t-21.5 58.5zM778 1440q0 35 21.5 58.5t58.5 23.5h2q31 0 51.5 -22.5t20.5 -55.5q0 -39 -21.5 -60.5 t-58.5 -21.5q-29 0 -51.5 19.5t-22.5 58.5z" />
<glyph unicode="&#xdd;" horiz-adv-x="1114" d="M39 1257v7q49 23 94 22q20 0 82 -86l356 -508l223 308q169 237 199 286q23 0 62 -14q16 -6 16 -21q0 -18 -22 -49l-212 -288q-185 -253 -204 -275q-20 -25 -21 -78v-311q0 -123 6 -246q-29 -16 -94 -16q-25 0 -24 37v522q0 63 -15 84l-224 323q-148 209 -222 303z M461 1368q-3 7 -3 13q0 16 19 28q63 41 172 97.5t137 58.5q16 -6 39 -32t27 -42q3 -8 3 -14q0 -18 -28 -23q-80 -23 -342 -119q-16 10 -24 33z" />
<glyph unicode="&#xde;" horiz-adv-x="911" d="M154 1270q76 16 92 16t21 -21.5t5 -90.5v-154q61 12 142 12q215 0 325 -108q102 -104 103 -277q0 -106 -39 -188t-100.5 -125t-125 -64.5t-123 -21.5t-75.5 14q-29 23 -37 62q53 -4 68 -5h13q33 0 69 9q43 10 98 39.5t91 100.5t36 175q0 150 -85 230q-83 79 -225 79h-8 q-98 0 -127 -12v-684q0 -129 7 -252q-29 -16 -84 -16q-35 0 -35 37v985q0 203 -6 260z" />
<glyph unicode="&#xdf;" horiz-adv-x="995" d="M57 838q41 23 103 43q8 258 123 393q115 131 286 131h2q133 0 210 -83t77 -218q0 -59 -10 -90q-113 -53 -182.5 -126t-69.5 -151q0 -70 76 -131q61 -49 137 -102q119 -86 119 -215q0 -137 -102.5 -224.5t-260.5 -87.5q-127 0 -198 56q0 31 16 53q20 23 47 8 q80 -31 145 -31q111 0 177.5 56.5t66.5 144.5q0 55 -17.5 89t-72.5 79l-111 80q-127 94 -126 215q0 170 256 313q8 25 8 50q0 115 -55.5 177t-151.5 62q-133 0 -208 -121t-77 -372q-1 -75 0 -165q0 -268 4 -667q-27 -16 -82 -16q-29 0 -28 26q2 74 2 770q-103 3 -103 54z " />
<glyph unicode="&#xe0;" horiz-adv-x="833" d="M66 186q0 37 10 70t31.5 59.5t44 48t57.5 39.5l58 31q24 12 63 25l55 17q16 5 49 13l33 9q74 16 100 20l2 84q0 90 -48 153.5t-144 63.5q-113 0 -225 -92q-20 -12 -39 1t-25 46q43 49 129 94t176 45q281 0 281 -338q0 -29 -1 -128t-2 -166q0 -23 -1 -47q0 -48 2 -101 q2 -78 65 -78q20 0 43 8l2 -4q1 -6 1 -11q0 -35 -23 -52q-27 -20 -70 -21q-61 0 -93 43t-30 101q-119 -143 -280 -144q-102 0 -161.5 64.5t-59.5 146.5zM180 205v-2q0 -59 43 -96t105 -37q78 0 137 41t90 94q12 20 12 65v172q-61 -12 -102 -21t-100.5 -29.5t-95.5 -44 t-62.5 -60.5t-26.5 -82zM186 1313q-9 7 -9 16q0 11 16 25q39 39 65 39h2q16 -2 78.5 -106.5t93.5 -176.5q5 -13 5 -24q0 -14 -9 -23q-31 -27 -35 -29q-113 173 -207 279z" />
<glyph unicode="&#xe1;" horiz-adv-x="833" d="M66 186q0 37 10 70t31.5 59.5t44 48t57.5 39.5l58 31q24 12 63 25l55 17q16 5 49 13l33 9q74 16 100 20l2 84q0 90 -48 153.5t-144 63.5q-113 0 -225 -92q-20 -12 -39 1t-25 46q43 49 129 94t176 45q281 0 281 -338q0 -29 -1 -128t-2 -166q0 -23 -1 -47q0 -48 2 -101 q2 -78 65 -78q20 0 43 8l2 -4q1 -6 1 -11q0 -35 -23 -52q-27 -20 -70 -21q-61 0 -93 43t-30 101q-119 -143 -280 -144q-102 0 -161.5 64.5t-59.5 146.5zM180 205v-2q0 -59 43 -96t105 -37q78 0 137 41t90 94q12 20 12 65v172q-61 -12 -102 -21t-100.5 -29.5t-95.5 -44 t-62.5 -60.5t-26.5 -82zM319 1063q-3 4 -3 11q0 15 14 42q33 72 90 172.5t72 100.5h2q16 0 40.5 -12.5t36.5 -26.5q7 -6 7 -14q0 -11 -13 -25q-92 -106 -207 -283q-16 8 -39 35z" />
<glyph unicode="&#xe2;" horiz-adv-x="833" d="M66 186q0 37 10 70t31.5 59.5t44 48t57.5 39.5l58 31q24 12 63 25l55 17q16 5 49 13l33 9q74 16 100 20l2 84q0 90 -48 153.5t-144 63.5q-113 0 -225 -92q-20 -12 -39 1t-25 46q43 49 129 94t176 45q281 0 281 -338q0 -29 -1 -128t-2 -166q0 -23 -1 -47q0 -48 2 -101 q2 -78 65 -78q20 0 43 8l2 -4q1 -6 1 -11q0 -35 -23 -52q-27 -20 -70 -21q-61 0 -93 43t-30 101q-119 -143 -280 -144q-102 0 -161.5 64.5t-59.5 146.5zM180 205v-2q0 -59 43 -96t105 -37q78 0 137 41t90 94q12 20 12 65v172q-61 -12 -102 -21t-100.5 -29.5t-95.5 -44 t-62.5 -60.5t-26.5 -82zM186 1059l78 142t76 140q14 31 35 35q29 8 47 8q55 -113 170 -321q-27 -33 -66 -33q-14 0 -26 21q-10 25 -26 54l-40 75l-43 82l-123 -226q-12 -6 -18 -6h-2q-16 0 -37 9.5t-25 19.5z" />
<glyph unicode="&#xe3;" horiz-adv-x="833" d="M66 186q0 37 10 70t31.5 59.5t44 48t57.5 39.5l58 31q24 12 63 25l55 17q16 5 49 13l33 9q74 16 100 20l2 84q0 90 -48 153.5t-144 63.5q-113 0 -225 -92q-20 -12 -39 1t-25 46q43 49 129 94t176 45q281 0 281 -338q0 -29 -1 -128t-2 -166q0 -23 -1 -47q0 -48 2 -101 q2 -78 65 -78q20 0 43 8l2 -4q1 -6 1 -11q0 -35 -23 -52q-27 -20 -70 -21q-61 0 -93 43t-30 101q-119 -143 -280 -144q-102 0 -161.5 64.5t-59.5 146.5zM162 1098q31 195 149 194h2q61 0 115 -69q45 -55 61 -56q37 0 56 105q6 23 22 22q14 0 54 -30q-25 -193 -138 -193 q-23 0 -44 13.5t-32.5 25.5t-37.5 45q-39 45 -62 45q-37 0 -65 -98q-4 -23 -17 -23q-14 1 -63 19zM180 205v-2q0 -59 43 -96t105 -37q78 0 137 41t90 94q12 20 12 65v172q-61 -12 -102 -21t-100.5 -29.5t-95.5 -44t-62.5 -60.5t-26.5 -82z" />
<glyph unicode="&#xe4;" horiz-adv-x="833" d="M66 186q0 37 10 70t31.5 59.5t44 48t57.5 39.5l58 31q24 12 63 25l55 17q16 5 49 13l33 9q74 16 100 20l2 84q0 90 -48 153.5t-144 63.5q-113 0 -225 -92q-20 -12 -39 1t-25 46q43 49 129 94t176 45q281 0 281 -338q0 -29 -1 -128t-2 -166q0 -23 -1 -47q0 -48 2 -101 q2 -78 65 -78q20 0 43 8l2 -4q1 -6 1 -11q0 -35 -23 -52q-27 -20 -70 -21q-61 0 -93 43t-30 101q-119 -143 -280 -144q-102 0 -161.5 64.5t-59.5 146.5zM162 1171q0 35 21.5 58.5t56.5 23.5h2q29 0 49 -22.5t20 -52.5q0 -39 -21.5 -60.5t-53.5 -21.5q-31 0 -52.5 19 t-21.5 56zM180 205v-2q0 -59 43 -96t105 -37q78 0 137 41t90 94q12 20 12 65v172q-61 -12 -102 -21t-100.5 -29.5t-95.5 -44t-62.5 -60.5t-26.5 -82zM475 1171.5q0 36.5 20.5 59t57.5 22.5h2q31 0 50.5 -22.5t19.5 -52.5q0 -39 -21.5 -60.5t-56.5 -21.5q-29 0 -50.5 19.5 t-21.5 56z" />
<glyph unicode="&#xe5;" horiz-adv-x="833" d="M66 186q0 37 10 70t31.5 59.5t44 48t57.5 39.5l58 31q24 12 63 25l55 17q16 5 49 13l33 9q74 16 100 20l2 84q0 90 -48 153.5t-144 63.5q-113 0 -225 -92q-20 -12 -39 1t-25 46q43 49 129 94t176 45q281 0 281 -338q0 -29 -1 -128t-2 -166q0 -23 -1 -47q0 -48 2 -101 q2 -78 65 -78q20 0 43 8l2 -4q1 -6 1 -11q0 -35 -23 -52q-27 -20 -70 -21q-61 0 -93 43t-30 101q-119 -143 -280 -144q-102 0 -161.5 64.5t-59.5 146.5zM180 205v-2q0 -59 43 -96t105 -37q78 0 137 41t90 94q12 20 12 65v172q-61 -12 -102 -21t-100.5 -29.5t-95.5 -44 t-62.5 -60.5t-26.5 -82zM225 1179.5q0 73.5 46 123t122 49.5h2q70 0 117 -47.5t47 -118.5q0 -78 -47 -124t-125 -46q-68 0 -115 45t-47 118.5zM311 1186q0 -39 23.5 -67.5t58.5 -28.5q39 0 59.5 27.5t20.5 64.5q0 41 -20.5 69.5t-63.5 28.5h-2q-35 0 -55.5 -29.5 t-20.5 -64.5z" />
<glyph unicode="&#xe6;" horiz-adv-x="1351" d="M63 188q0 47 21.5 89t47.5 71t77 56.5t80.5 41t93 32t78 21.5t67.5 15q20 4 39 10v56q0 104 -51 171.5t-154 67.5q-113 0 -202 -82q-19 -16 -34 -16q-26 0 -42 47q35 51 124 98t183 47q102 0 173 -60t85 -140q51 88 137 144t193 56q150 0 231.5 -95t85.5 -228 q0 -45 -4 -62q-4 -25 -68.5 -47t-111.5 -24q-72 -5 -182 -5t-258 5v-15q0 -162 90 -265q94 -108 258 -107q127 0 223 53l4 -6q-6 -68 -67 -101q-78 -41 -197 -41q-111 0 -206 49.5t-140 131.5q-53 -66 -149.5 -123.5t-198.5 -57.5q-109 0 -167.5 63.5t-58.5 149.5zM180 201 q0 -53 39 -91t103 -38h2q158 0 282 147q-41 96 -41 225q-51 -10 -70 -15l-71 -18q-51 -13 -75.5 -23.5t-63.5 -31t-57.5 -41t-33 -50t-14.5 -64.5zM678 537q179 -3 291 -3t157 3q55 4 56 51v13q0 99 -57 166q-60 71 -169 71h-2q-104 0 -181 -88t-95 -213z" />
<glyph unicode="&#xe7;" horiz-adv-x="843" d="M74 440q0 211 141 342t334 131q94 0 164.5 -25.5t85.5 -49.5q0 -29 -21 -50q-23 -23 -45 -10q-88 45 -196 45q-154 0 -250.5 -106.5t-96.5 -267.5q0 -113 37 -193t97.5 -118t118 -53t120.5 -15q113 0 211 43l4 -7q-6 -61 -47 -86q-23 -14 -73 -27t-83 -13l-59 -89 q127 -33 127 -143q0 -74 -72.5 -124t-160.5 -64q-14 2 -25.5 19.5t-11.5 31.5q0 10 18 16q156 49 156 111q0 80 -166 84v4l104 151q-411 43 -411 463z" />
<glyph unicode="&#xe8;" horiz-adv-x="858" d="M72 424q0 209 110.5 349t300.5 140q150 0 232 -95t86 -228q0 -43 -4 -62q-6 -27 -65.5 -44t-115.5 -19q-90 -6 -213 -6q-99 0 -221 4v-16q0 -167 86 -270q90 -108 250 -107q61 0 129 17t101 36l4 -2q-4 -63 -50 -94q-84 -51 -210 -52q-203 0 -311.5 120t-108.5 329z M193 545h440q55 4 55 43v13q0 100 -57 166q-61 71 -170 71h-2q-98 0 -173 -79t-93 -214zM266 1313q-9 7 -9 16q0 11 15 25q39 39 66 39h2q16 -2 78.5 -106.5t93.5 -176.5q5 -13 5 -24q0 -14 -9 -23q-31 -27 -35 -29q-113 173 -207 279z" />
<glyph unicode="&#xe9;" horiz-adv-x="858" d="M72 424q0 209 110.5 349t300.5 140q150 0 232 -95t86 -228q0 -43 -4 -62q-6 -27 -65.5 -44t-115.5 -19q-90 -6 -213 -6q-99 0 -221 4v-16q0 -167 86 -270q90 -108 250 -107q61 0 129 17t101 36l4 -2q-4 -63 -50 -94q-84 -51 -210 -52q-203 0 -311.5 120t-108.5 329z M193 545h440q55 4 55 43v13q0 100 -57 166q-61 71 -170 71h-2q-98 0 -173 -79t-93 -214zM375 1063q-3 4 -4 11q0 15 14 42q33 72 90 172.5t72 100.5h2q16 0 40.5 -12.5t37.5 -26.5q7 -6 7 -14q0 -11 -13 -25q-92 -106 -207 -283q-16 8 -39 35z" />
<glyph unicode="&#xea;" horiz-adv-x="858" d="M72 424q0 209 110.5 349t300.5 140q150 0 232 -95t86 -228q0 -43 -4 -62q-6 -27 -65.5 -44t-115.5 -19q-90 -6 -213 -6q-99 0 -221 4v-16q0 -167 86 -270q90 -108 250 -107q61 0 129 17t101 36l4 -2q-4 -63 -50 -94q-84 -51 -210 -52q-203 0 -311.5 120t-108.5 329z M193 545h440q55 4 55 43v13q0 100 -57 166q-61 71 -170 71h-2q-98 0 -173 -79t-93 -214zM256 1059l78 142t76 140q14 31 34 35q29 8 48 8q55 -113 170 -321q-27 -33 -66 -33q-14 0 -27 21q-10 25 -25 54l-40 75l-43 82l-123 -226q-12 -6 -19 -6h-2q-16 0 -36.5 9.5 t-24.5 19.5z" />
<glyph unicode="&#xeb;" horiz-adv-x="858" d="M72 424q0 209 110.5 349t300.5 140q150 0 232 -95t86 -228q0 -43 -4 -62q-6 -27 -65.5 -44t-115.5 -19q-90 -6 -213 -6q-99 0 -221 4v-16q0 -167 86 -270q90 -108 250 -107q61 0 129 17t101 36l4 -2q-4 -63 -50 -94q-84 -51 -210 -52q-203 0 -311.5 120t-108.5 329z M193 545h440q55 4 55 43v13q0 100 -57 166q-61 71 -170 71h-2q-98 0 -173 -79t-93 -214zM229 1171q0 35 21.5 58.5t56.5 23.5h2q29 0 49.5 -22.5t20.5 -52.5q0 -39 -21.5 -60.5t-54.5 -21.5q-31 0 -52.5 19t-21.5 56zM543 1171.5q0 36.5 20.5 59t57.5 22.5h2q31 0 50 -22.5 t19 -52.5q0 -39 -21.5 -60.5t-56.5 -21.5q-29 0 -50 19.5t-21 56z" />
<glyph unicode="&#xec;" horiz-adv-x="405" d="M8 1313q-9 7 -9 16q0 11 15 25q39 39 66 39h2q16 -2 78.5 -106.5t93.5 -176.5q5 -13 5 -24q0 -14 -9 -23q-31 -27 -35 -29q-113 173 -207 279zM143 883q41 18 90 18q23 0 23 -125v-727q0 -45 -27 -51q-35 -8 -84 -10q6 246 7 319v344q-1 142 -9 232z" />
<glyph unicode="&#xed;" horiz-adv-x="405" d="M129 1063q-3 4 -3 11q0 15 13 42q33 72 90.5 172.5t71.5 100.5h2q16 0 41 -12.5t37 -26.5q7 -6 7 -14q0 -11 -13 -25q-92 -106 -207 -283q-16 8 -39 35zM143 883q41 18 90 18q23 0 23 -125v-727q0 -45 -27 -51q-35 -8 -84 -10q6 246 7 319v344q-1 142 -9 232z" />
<glyph unicode="&#xee;" horiz-adv-x="405" d="M0 1059l78 142t76 140q14 31 34 35q29 8 48 8q55 -113 170 -321q-27 -33 -66 -33q-14 0 -27 21q-10 25 -25 54l-40 75l-43 82l-123 -226q-12 -6 -19 -6h-2q-16 0 -36.5 9.5t-24.5 19.5zM143 883q41 18 90 18q23 0 23 -125v-727q0 -45 -27 -51q-35 -8 -84 -10q6 246 7 319 v344q-1 142 -9 232z" />
<glyph unicode="&#xef;" horiz-adv-x="405" d="M-20 1171q0 35 21.5 58.5t55.5 23.5h2q29 0 49.5 -22.5t20.5 -52.5q0 -39 -21.5 -60.5t-54.5 -21.5q-31 0 -52 19t-21 56zM143 883q41 18 90 18q23 0 23 -125v-727q0 -45 -27 -51q-35 -8 -84 -10q6 246 7 319v344q-1 142 -9 232zM293 1171.5q0 36.5 20.5 59t57.5 22.5h2 q31 0 50 -22.5t19 -52.5q0 -39 -21.5 -60.5t-55.5 -21.5q-29 0 -50.5 19.5t-21.5 56z" />
<glyph unicode="&#xf0;" horiz-adv-x="1005" d="M74 426q0 211 133 349t344 138q129 0 227 -67q-68 186 -160 278l-286 -141q-29 -14 -29 16q0 41 27 72l225 107q-166 127 -371 149l-2 4q12 20 19 29q18 33 53 33q78 0 199.5 -53.5t193.5 -116.5l232 120q25 12 24 -12q0 -61 -37 -80l-155 -82q111 -113 169 -282.5 t58 -366.5q0 -252 -122 -398.5t-314 -146.5q-207 0 -317.5 129t-110.5 322zM190 434q0 -195 98.5 -288t217.5 -93q141 0 229 117t88 352q0 125 -26 217q-41 45 -113 71t-141 26h-2q-154 0 -252.5 -109t-98.5 -293z" />
<glyph unicode="&#xf1;" horiz-adv-x="1024" d="M127 866v6q10 10 35.5 24.5t38.5 14.5q57 0 57 -166q63 72 149.5 120t172.5 48q293 0 292 -368v-316q0 -160 9 -225q-82 -16 -95 -16q-20 0 -20 22l2 527q2 283 -221 282q-88 0 -164 -51t-121 -115v-610q0 -31 -8 -40t-31 -11q-12 -2 -38.5 -3t-32.5 -1q6 61 6 383v354 q0 114 -31 141zM270 1098q31 195 150 194h2q61 0 115 -69q45 -55 61 -56q37 0 55 105q6 23 23 22q14 0 53 -30q-25 -193 -137 -193q-23 0 -44.5 13.5t-32.5 25.5t-38 45q-39 45 -61 45q-37 0 -66 -98q-4 -23 -16 -23q-15 1 -64 19z" />
<glyph unicode="&#xf2;" horiz-adv-x="1013" d="M72 434q0 201 123.5 340t320.5 139h2q203 0 313.5 -129t110.5 -333q0 -201 -118.5 -338.5t-315.5 -137.5q-119 0 -208 43t-136 114t-69.5 146.5t-22.5 155.5zM188 453q0 -188 95.5 -294t236.5 -106q49 0 98.5 18.5t98.5 59.5t78.5 122t29.5 191q0 164 -83 278t-238 114 h-2q-123 0 -218.5 -99.5t-95.5 -283.5zM319 1313q-9 7 -8 16q0 11 15 25q39 39 65 39h2q16 -2 79 -106.5t93 -176.5q5 -13 6 -24q0 -14 -10 -23q-31 -27 -35 -29q-113 173 -207 279z" />
<glyph unicode="&#xf3;" horiz-adv-x="1013" d="M72 434q0 201 123.5 340t320.5 139h2q203 0 313.5 -129t110.5 -333q0 -201 -118.5 -338.5t-315.5 -137.5q-119 0 -208 43t-136 114t-69.5 146.5t-22.5 155.5zM188 453q0 -188 95.5 -294t236.5 -106q49 0 98.5 18.5t98.5 59.5t78.5 122t29.5 191q0 164 -83 278t-238 114 h-2q-123 0 -218.5 -99.5t-95.5 -283.5zM420 1063q-3 4 -4 11q0 15 14 42q33 72 90.5 172.5t71.5 100.5h2q16 0 40.5 -12.5t37.5 -26.5q7 -6 7 -14q0 -11 -13 -25q-92 -106 -207 -283q-16 8 -39 35z" />
<glyph unicode="&#xf4;" horiz-adv-x="1013" d="M72 434q0 201 123.5 340t320.5 139h2q203 0 313.5 -129t110.5 -333q0 -201 -118.5 -338.5t-315.5 -137.5q-119 0 -208 43t-136 114t-69.5 146.5t-22.5 155.5zM188 453q0 -188 95.5 -294t236.5 -106q49 0 98.5 18.5t98.5 59.5t78.5 122t29.5 191q0 164 -83 278t-238 114 h-2q-123 0 -218.5 -99.5t-95.5 -283.5zM322 1059l78 142t75 140q14 31 35 35q29 8 47 8q55 -113 170 -321q-27 -33 -65 -33q-14 0 -27 21q-10 25 -26 54l-40 75l-43 82l-123 -226q-12 -6 -18 -6h-2q-16 0 -36.5 9.5t-24.5 19.5z" />
<glyph unicode="&#xf5;" horiz-adv-x="1013" d="M72 434q0 201 123.5 340t320.5 139h2q203 0 313.5 -129t110.5 -333q0 -201 -118.5 -338.5t-315.5 -137.5q-119 0 -208 43t-136 114t-69.5 146.5t-22.5 155.5zM188 453q0 -188 95.5 -294t236.5 -106q49 0 98.5 18.5t98.5 59.5t78.5 122t29.5 191q0 164 -83 278t-238 114 h-2q-123 0 -218.5 -99.5t-95.5 -283.5zM264 1098q31 195 150 194h2q61 0 114 -69q45 -55 62 -56q37 0 55 105q6 23 23 22q14 0 53 -30q-25 -193 -137 -193q-23 0 -44.5 13.5t-32.5 25.5t-38 45q-39 45 -61 45q-37 0 -66 -98q-4 -23 -16 -23q-15 1 -64 19z" />
<glyph unicode="&#xf6;" horiz-adv-x="1013" d="M72 434q0 201 123.5 340t320.5 139h2q203 0 313.5 -129t110.5 -333q0 -201 -118.5 -338.5t-315.5 -137.5q-119 0 -208 43t-136 114t-69.5 146.5t-22.5 155.5zM188 453q0 -188 95.5 -294t236.5 -106q49 0 98.5 18.5t98.5 59.5t78.5 122t29.5 191q0 164 -83 278t-238 114 h-2q-123 0 -218.5 -99.5t-95.5 -283.5zM264 1171q0 35 21.5 58.5t56.5 23.5h2q29 0 49.5 -22.5t20.5 -52.5q0 -39 -21.5 -60.5t-54.5 -21.5q-31 0 -52.5 19t-21.5 56zM578 1171.5q0 36.5 20 59t57 22.5h2q31 0 50.5 -22.5t19.5 -52.5q0 -39 -21.5 -60.5t-56.5 -21.5 q-29 0 -50 19.5t-21 56z" />
<glyph unicode="&#xf7;" horiz-adv-x="1148" d="M123 459q2 33 16.5 57.5t38.5 24.5h848q-2 -82 -65 -82h-838zM498 209q0 31 21.5 53.5t51.5 22.5h2q29 0 50.5 -23.5t21.5 -52.5q0 -31 -22.5 -54.5t-51.5 -23.5q-31 0 -52 23.5t-21 54.5zM498 792.5q0 30.5 22.5 53t50.5 22.5q33 0 55.5 -22.5t22.5 -52.5 q0 -33 -22.5 -55.5t-57.5 -22.5h-2q-25 0 -47 23.5t-22 54z" />
<glyph unicode="&#xf8;" horiz-adv-x="1044" d="M72 438q0 201 128 338t326 137q133 0 242 -65q33 45 49 65q17 22 30 22q7 0 13 -7q20 -25 27 -54l-58 -73q141 -131 142 -355q0 -199 -123 -335t-318 -136q-160 0 -256 66l-57 -74q-13 -20 -26 -20l-19 10q-27 41 -29 45l68 88q-139 133 -139 348zM184 444 q0 -168 88 -272l439 602q-80 63 -195 64q-131 0 -231.5 -102t-100.5 -292zM330 119q78 -70 202 -70q53 0 105.5 19.5t105 62.5t84 125t31.5 190q0 182 -88 275z" />
<glyph unicode="&#xf9;" horiz-adv-x="1017" d="M143 883q41 18 90 18q20 0 21 -125q2 -135 2 -407q0 -96 20.5 -159t57.5 -90.5t71.5 -36.5t81.5 -9q84 0 158 46t105 97v612q0 51 24 60q49 12 86 12q0 -6 -3 -133t-3 -231v-344q0 -82 17.5 -111t66.5 -35v-8q-2 -18 -22.5 -41t-45.5 -23q-49 0 -79.5 43t-32.5 115 q-70 -82 -183 -131q-61 -27 -133 -27q-143 0 -216.5 88.5t-73.5 241.5v346q-1 142 -9 232zM311 1313q-9 7 -9 16q0 11 15 25q39 39 66 39h2q16 -2 78.5 -106.5t93.5 -176.5q5 -13 5 -24q0 -14 -9 -23q-31 -27 -35 -29q-113 173 -207 279z" />
<glyph unicode="&#xfa;" horiz-adv-x="1017" d="M143 883q41 18 90 18q20 0 21 -125q2 -135 2 -407q0 -96 20.5 -159t57.5 -90.5t71.5 -36.5t81.5 -9q84 0 158 46t105 97v612q0 51 24 60q49 12 86 12q0 -6 -3 -133t-3 -231v-344q0 -82 17.5 -111t66.5 -35v-8q-2 -18 -22.5 -41t-45.5 -23q-49 0 -79.5 43t-32.5 115 q-70 -82 -183 -131q-61 -27 -133 -27q-143 0 -216.5 88.5t-73.5 241.5v346q-1 142 -9 232zM426 1063q-3 4 -3 11q0 15 13 42q33 72 90.5 172.5t71.5 100.5h2q16 0 41 -12.5t37 -26.5q7 -6 7 -14q0 -11 -13 -25q-92 -106 -207 -283q-16 8 -39 35z" />
<glyph unicode="&#xfb;" horiz-adv-x="1017" d="M143 883q41 18 90 18q20 0 21 -125q2 -135 2 -407q0 -96 20.5 -159t57.5 -90.5t71.5 -36.5t81.5 -9q84 0 158 46t105 97v612q0 51 24 60q49 12 86 12q0 -6 -3 -133t-3 -231v-344q0 -82 17.5 -111t66.5 -35v-8q-2 -18 -22.5 -41t-45.5 -23q-49 0 -79.5 43t-32.5 115 q-70 -82 -183 -131q-61 -27 -133 -27q-143 0 -216.5 88.5t-73.5 241.5v346q-1 142 -9 232zM301 1059l78 142t76 140q14 31 34 35q29 8 48 8q55 -113 170 -321q-27 -33 -66 -33q-14 0 -27 21q-10 25 -25 54l-40 75l-43 82l-123 -226q-12 -6 -18 -6h-3q-16 0 -36.5 9.5 t-24.5 19.5z" />
<glyph unicode="&#xfc;" horiz-adv-x="1017" d="M143 883q41 18 90 18q20 0 21 -125q2 -135 2 -407q0 -96 20.5 -159t57.5 -90.5t71.5 -36.5t81.5 -9q84 0 158 46t105 97v612q0 51 24 60q49 12 86 12q0 -6 -3 -133t-3 -231v-344q0 -82 17.5 -111t66.5 -35v-8q-2 -18 -22.5 -41t-45.5 -23q-49 0 -79.5 43t-32.5 115 q-70 -82 -183 -131q-61 -27 -133 -27q-143 0 -216.5 88.5t-73.5 241.5v346q-1 142 -9 232zM264 1171q0 35 21.5 58.5t56.5 23.5h2q29 0 49.5 -22.5t20.5 -52.5q0 -39 -21.5 -60.5t-54.5 -21.5q-31 0 -52.5 19t-21.5 56zM578 1171.5q0 36.5 20.5 59t56.5 22.5h2 q31 0 50.5 -22.5t19.5 -52.5q0 -39 -21.5 -60.5t-56.5 -21.5q-29 0 -50 19.5t-21 56z" />
<glyph unicode="&#xfd;" horiz-adv-x="831" d="M45 874q49 39 84 39q23 0 31 -20q27 -61 140.5 -369.5t137.5 -369.5q66 133 151 373.5t122 385.5q9 1 17 1q38 0 56 -15q12 -11 12 -31q0 -14 -5 -32q-131 -403 -234 -639q-63 -145 -151.5 -302t-153 -250.5t-80.5 -93.5q-51 0 -80 29v4q172 223 289 459q-10 12 -45 94 q-170 479 -291 737zM360 1063q-3 4 -3 11q0 15 14 42q33 72 90 172.5t71 100.5h3q16 0 40.5 -12.5t36.5 -26.5q7 -6 7 -14q0 -11 -13 -25q-92 -106 -207 -283q-16 8 -39 35z" />
<glyph unicode="&#xfe;" horiz-adv-x="1030" d="M147 1372q53 20 93 21q23 0 22 -133v-488q176 141 326 141q152 0 260 -107.5t108 -334.5q0 -207 -136 -351.5t-345 -144.5q-117 0 -215 64v-426q0 -23 -6 -30t-29 -15q-41 -6 -75 -6q6 57 6 381v798v398q-1 151 -9 233zM260 123q98 -63 217 -64q37 0 76 7.5t93 34 t94 69.5t70 125t30 190q0 123 -75 224.5t-210 101.5q-162 0 -295 -127v-561z" />
<glyph unicode="&#xff;" horiz-adv-x="831" d="M45 874q49 39 84 39q23 0 31 -20q27 -61 140.5 -369.5t137.5 -369.5q66 133 151 373.5t122 385.5q9 1 17 1q38 0 56 -15q12 -11 12 -31q0 -14 -5 -32q-131 -403 -234 -639q-63 -145 -151.5 -302t-153 -250.5t-80.5 -93.5q-51 0 -80 29v4q172 223 289 459q-10 12 -45 94 q-170 479 -291 737zM205 1171q0 35 21.5 58.5t56.5 23.5h2q29 0 49 -22.5t20 -52.5q0 -39 -21.5 -60.5t-53.5 -21.5q-31 0 -52.5 19t-21.5 56zM518 1171.5q0 36.5 20.5 59t57.5 22.5h2q31 0 50.5 -22.5t19.5 -52.5q0 -39 -21.5 -60.5t-56.5 -21.5q-29 0 -50.5 19.5t-21.5 56 z" />
<glyph unicode="&#x152;" horiz-adv-x="1900" d="M84 618q0 287 178 490t459 203q162 0 288 -63.5t191 -186.5v192q33 14 88 25h531q-14 -45 -37 -66q-20 -18 -140 -18h-331v-494h485q-12 -55 -34.5 -69.5t-86.5 -14.5h-364v-526q49 -18 262 -18q217 0 297 10l2 -4q-14 -68 -80 -82q-49 -8 -219 -8q-256 0 -346 22l-27 33 v199q-76 -133 -207 -203t-291 -70q-162 0 -286.5 59.5t-194 158t-103.5 207.5t-34 224zM205 627q0 -250 131 -414t373 -164q100 0 185 30t157.5 95.5t113.5 185t41 281.5q0 590 -495 590q-199 0 -352.5 -161t-153.5 -441v-2z" />
<glyph unicode="&#x153;" horiz-adv-x="1607" d="M72 436q0 201 120.5 339t317.5 138q260 0 371 -247q45 113 137 180t217 67q150 0 232.5 -95t86.5 -228q0 -43 -4 -62q-4 -23 -66.5 -42t-111.5 -21q-109 -4 -218.5 -4t-219.5 4v-16q0 -169 85 -272q89 -108 253 -107q125 0 231 53l4 -4q-4 -31 -24.5 -60.5t-44.5 -44.5 q-78 -39 -191 -39q-131 0 -230.5 63.5t-142.5 180.5q-109 -244 -370 -244q-117 0 -205 43t-135 113t-69.5 146.5t-22.5 158.5zM188 440.5q0 -184.5 93.5 -287t228.5 -102.5q51 0 101 17.5t101.5 57.5t82 124t30.5 203q0 178 -87 281.5t-234 103.5h-2q-139 0 -226.5 -106.5 t-87.5 -291zM942 545h447q55 4 55 43v13q0 100 -60 167q-63 72 -172 72h-2q-102 0 -173.5 -84t-94.5 -211z" />
<glyph unicode="&#x178;" horiz-adv-x="1114" d="M39 1257v7q49 23 94 22q20 0 82 -86l356 -508l223 308q169 237 199 286q23 0 62 -14q16 -6 16 -21q0 -18 -22 -49l-212 -288q-185 -253 -204 -275q-20 -25 -21 -78v-311q0 -123 6 -246q-29 -16 -94 -16q-25 0 -24 37v522q0 63 -15 84l-224 323q-148 209 -222 303z M307 1440q0 35 21.5 58.5t56.5 23.5h2q31 0 51.5 -22.5t20.5 -55.5q0 -39 -21.5 -60.5t-54.5 -21.5t-54.5 19.5t-21.5 58.5zM672 1440q0 35 21.5 58.5t58.5 23.5h2q31 0 51 -22.5t20 -55.5q0 -39 -21.5 -60.5t-58.5 -21.5q-29 0 -51 19.5t-22 58.5z" />
<glyph unicode="&#x2c6;" horiz-adv-x="819" d="M207 1059l78 142t75 140q14 31 35 35q29 8 47 8q55 -113 170 -321q-27 -33 -65 -33q-14 0 -27 21q-10 25 -25 54l-40 75l-43 82l-123 -226q-12 -6 -19 -6h-2q-16 0 -36.5 9.5t-24.5 19.5z" />
<glyph unicode="&#x2dc;" horiz-adv-x="819" d="M180 1098q31 195 150 194h2q61 0 114 -69q45 -55 62 -56q37 0 55 105q6 23 23 22q14 0 53 -30q-25 -193 -137 -193q-23 0 -44.5 13.5t-32.5 25.5t-38 45q-39 45 -61 45q-37 0 -66 -98q-4 -23 -16 -23q-15 1 -64 19z" />
<glyph unicode="&#x2013;" horiz-adv-x="1116" d="M98 451l4 28q12 66 62 66h856l-6 -33q-12 -61 -47 -61h-869z" />
<glyph unicode="&#x2014;" horiz-adv-x="1896" d="M98 451l4 28q12 66 62 66h1636l-10 -56q-8 -39 -43 -38h-1649z" />
<glyph unicode="&#x2018;" horiz-adv-x="329" d="M72 1034v2q0 76 35.5 169t70.5 136q35 39 96 37q-84 -178 -84 -319q0 -55 5 -74q-33 -41 -74 -41q-49 0 -49 90z" />
<glyph unicode="&#x2019;" horiz-adv-x="329" d="M59 934q84 178 84 319q0 47 -4 74q29 41 76 41t47 -92v-2q0 -74 -37 -168t-71 -135q-31 -37 -89 -37h-6z" />
<glyph unicode="&#x201a;" horiz-adv-x="311" d="M14 -227q43 66 74 153.5t31 159.5q0 51 -10 88q41 41 75 41h2q53 0 54 -106q0 -82 -50.5 -183.5t-99.5 -138.5q-18 -15 -64 -15q-6 1 -12 1z" />
<glyph unicode="&#x201c;" horiz-adv-x="602" d="M72 1034v2q0 76 35.5 169t70.5 136q33 37 90 37h6q-84 -178 -84 -319q0 -55 5 -74q-33 -41 -74 -41q-49 0 -49 90zM344 1034v2q0 76 36 169t71 136q33 37 90 37h6q-84 -178 -84 -319q0 -47 4 -74q-33 -41 -76 -41q-47 0 -47 90z" />
<glyph unicode="&#x201d;" horiz-adv-x="602" d="M59 934q84 178 84 319q0 47 -4 74q29 41 76 41t47 -92v-2q0 -74 -37 -168t-71 -135q-27 -37 -88 -37h-7zM332 934q84 178 84 319q0 61 -4 74q29 41 76 41t47 -92v-2q0 -74 -36 -168t-71 -135q-31 -37 -90 -37h-6z" />
<glyph unicode="&#x201e;" horiz-adv-x="567" d="M14 -227q43 66 74 153.5t31 159.5q0 51 -10 88q41 41 75 41q55 0 56 -106v-3q0 -82 -50.5 -182t-99.5 -137q-17 -15 -57 -15q-9 0 -19 1zM268 -227q45 66 76 153.5t31 159.5q0 51 -10 88q51 41 77 41q29 0 41.5 -36t12.5 -70v-3q0 -82 -50.5 -182t-99.5 -137 q-18 -15 -65 -15q-7 1 -13 1z" />
<glyph unicode="&#x2022;" horiz-adv-x="567" d="M104 487q0 76 49.5 131.5t131.5 55.5h2q78 0 127 -53.5t49 -133.5q0 -88 -50.5 -139t-133.5 -51q-70 0 -122.5 54t-52.5 136z" />
<glyph unicode="&#x2026;" horiz-adv-x="1599" d="M160 63q0 37 25.5 63t66.5 26h2q31 0 52.5 -26t21.5 -58q0 -39 -23.5 -65t-62.5 -26q-31 0 -56.5 22.5t-25.5 63.5zM692 63q0 37 25.5 63t66.5 26h2q31 0 52.5 -26t21.5 -58q0 -39 -23.5 -65t-62.5 -26q-31 0 -56.5 22.5t-25.5 63.5zM1225 63q0 37 25.5 63t66.5 26h2 q31 0 52.5 -26t21.5 -58q0 -39 -23.5 -65t-62.5 -26q-31 0 -56.5 22.5t-25.5 63.5z" />
<glyph unicode="&#x2039;" horiz-adv-x="778" d="M102 473q217 236 332 404q35 -45 35 -86q0 -23 -54.5 -95.5t-121 -150.5t-74.5 -90q242 -303 242 -344v-2q0 -53 -45 -74q-176 250 -297 387q-17 26 -17 51z" />
<glyph unicode="&#x203a;" horiz-adv-x="778" d="M309 121q0 23 55.5 95.5t121 149t73.5 89.5q-4 4 -37 47l-63 82l-66 87q-35 48 -55.5 82.5t-20.5 47.5v2q0 53 45 74q176 -250 297 -388q16 -27 17 -51l-97 -114l-127 -152l-106 -137q-37 41 -37 86z" />
<glyph unicode="&#x20ac;" d="M20 463q12 53 26.5 67.5t57.5 14.5h46q0 82 2 119h-95q12 53 26.5 67t57.5 14h21q35 201 159.5 344.5t315.5 143.5q150 0 217 -68q3 -7 3 -14q0 -11 -7 -21q-2 -12 -18.5 -20t-24.5 -4q-74 45 -164 45q-139 0 -241.5 -101.5t-131.5 -304.5h482q-2 -55 -22.5 -68 t-65.5 -13h-402q-2 -30 -2 -60t2 -59h434q-10 -53 -26.5 -67.5t-65.5 -14.5h-336q23 -195 116 -300.5t245 -105.5q119 0 213 58l4 -6q0 -49 -37 -82q-55 -51 -203 -52q-201 0 -314.5 126t-135.5 362h-136z" />
<glyph unicode="&#x2122;" horiz-adv-x="890" d="M55 1251q12 23 25 33q8 -2 88 -2h219q0 -29 -33 -47h-108v-227q0 -23 1 -45.5t1 -24.5l-43 -6q-16 0 -17 12v291h-120q-15 0 -13 16zM383 938l63 311l-6 23q25 12 52 12q4 0 36 -72l84 -176q25 53 121 232v6q25 10 45 10q4 0 8 -18l31 -203q4 -33 12.5 -75t10.5 -50 q-20 -10 -54 -10q-14 0 -14 14l-12 98l-19 152q-29 -53 -123 -250q-23 -4 -32 -4q-10 27 -107 244q-16 -121 -41 -240q-2 -14 -12 -14q-23 0 -43 10z" />
<glyph unicode="&#xe000;" horiz-adv-x="915" d="M0 915h915v-915h-915v915z" />
<glyph unicode="&#xfb01;" horiz-adv-x="960" d="M57 831q35 35 103 58q0 305 159 438q98 78 230 78q106 0 160 -53q2 -27 -17 -52q-20 -20 -41 -10q-57 31 -127 31q-115 0 -188 -103q-72 -101 -72 -317v-12q326 0 416 6q27 2 65.5 8t42.5 6q23 0 23 -133v-727q0 -47 -27 -53q-35 -6 -84 -8q6 246 7 319v510 q-47 -6 -443 -12v-289q0 -135 1 -306t1 -206q-20 -16 -82 -16q-16 0 -21 7t-5 28q2 72 2 782q-103 -1 -103 26z" />
<glyph unicode="&#xfb02;" horiz-adv-x="960" d="M57 829q37 39 103 60q10 285 147 422q100 94 246 94q88 0 160 -43q66 43 78 43q20 0 20 -92v-1043q0 -92 6 -270q-37 -16 -86 -16q-25 0 -24 26v807q-144 -13 -341 -13q-49 0 -102 1v-290q0 -136 1 -306t1 -205q-20 -16 -80 -16q-16 0 -21 7t-5 28v782q-103 -1 -103 24z M264 889q430 0 443 2v338q0 31 -15 45q-53 55 -162 55q-111 0 -187.5 -106.5t-78.5 -333.5z" />
<glyph unicode="&#xfb03;" horiz-adv-x="1507" d="M57 831q33 33 103 56q16 244 139 368q104 109 264 109q150 0 246 -90q109 131 276 131q121 0 172 -55q2 -27 -15 -48.5t-40 -9.5q-61 31 -129 31q-262 0 -262 -436q371 0 416 2q20 0 43.5 5t43 10t21.5 5q23 0 23 -131v-729q0 -31 -5 -40t-22 -13q-61 -12 -84 -12 q6 258 6 323v508q-47 -10 -442 -10v-289q0 -135 1 -306t1 -206q-20 -16 -84 -16q-14 0 -19 6t-5 29q2 106 2 782h-443v-801q-20 -16 -82 -16q-16 0 -21 7t-5 28q4 145 4 782q-66 0 -84.5 4t-18.5 22zM264 887h443q0 215 57 309q-63 86 -211 86q-129 0 -208 -104.5 t-81 -290.5z" />
<glyph unicode="&#xfb04;" horiz-adv-x="1509" d="M57 834q31 35 103 55q16 242 139 366q104 109 272 109q150 0 240 -94q104 135 287 135q96 0 170 -39q43 39 71 39q8 0 12.5 -7t6.5 -37t2 -89v-1002q0 -152 8 -270q-53 -16 -88 -16q-25 0 -25 26v809q-144 -13 -342 -13q-49 0 -102 1v-290q0 -136 1 -307t1 -206 q-16 -16 -82 -16q-14 0 -19 6t-5 29v784h-443q-1 -57 -1 -144q0 -129 2 -323q3 -324 3 -336q-20 -16 -82 -16q-16 0 -21 7t-5 28v784h-13q-90 0 -90 27zM264 889h443q0 8 -1 15q0 70 17 153q18 92 41 137q-66 90 -215 90q-129 0 -206 -106.5t-79 -288.5zM811 889 q432 0 444 2v338q0 33 -10 43q-55 57 -160 57q-268 0 -274 -440z" />
</font>
</defs>
</svg>
