<?xml version="1.0" standalone="no"?>
<!DOCTYPE svg PUBLIC "-//W3C//DTD SVG 1.1//EN" "http://www.w3.org/Graphics/SVG/1.1/DTD/svg11.dtd" >
<svg xmlns="http://www.w3.org/2000/svg">
<metadata>
This is a custom SVG webfont generated by Font Squirrel.
Copyright   :  1996 2001 Adobe Systems Incorporated All Rights Reserved
Designer    : Robert Slimbach
Foundry URL : httpwwwadobecomtype
</metadata>
<defs>
<font id="CronosProItalic" horiz-adv-x="907" >
<font-face units-per-em="2048" ascent="1597" descent="-451" />
<missing-glyph horiz-adv-x="458" />
<glyph unicode=" "  horiz-adv-x="458" />
<glyph unicode="&#x09;" horiz-adv-x="458" />
<glyph unicode="&#xa0;" horiz-adv-x="458" />
<glyph unicode="!" horiz-adv-x="364" d="M31 76q0 55 30.5 90t85.5 35h3q41 0 65.5 -30t24.5 -73q0 -53 -31 -87t-80 -34q-45 0 -71.5 26t-26.5 73zM125 397q39 573 59 797q14 18 64.5 33.5t87.5 15.5h2q26 0 26 -38q0 -8 -2 -17q-12 -76 -64 -375t-62 -344q-10 -43 -37 -53q-43 -19 -74 -19z" />
<glyph unicode="&#x22;" horiz-adv-x="593" d="M125 893q41 262 47 405q14 14 53 28.5t66 14.5h2q36 0 36 -52q0 -19 -5 -46q-43 -203 -99 -309q-41 -37 -100 -41zM410 893q43 244 49 405q14 14 53 28.5t66 14.5h2q36 0 35 -52q0 -19 -5 -46q-43 -203 -98 -309q-43 -37 -102 -41z" />
<glyph unicode="#" d="M39 455q10 47 35 88h145l76 272h-133q-39 0 -29 31q14 55 37 86h156l71 248q45 23 90 22q23 0 11 -31l-66 -239h191l65 248q37 23 92 22q16 0 11 -33l-66 -237h117q26 0 25 -24q0 -5 -1 -11q-12 -41 -39 -84h-133l-71 -270h133q29 0 22 -31q-16 -61 -37 -86h-155 l-76 -303q-25 -25 -90 -25q-18 0 -10 31l77 297h-194l-80 -301q-8 -27 -31 -27q-33 0 -73 37l81 291h-124q-29 0 -29 18q0 5 2 11zM326 543h192l72 272h-189z" />
<glyph unicode="$" d="M31 131q6 43 31 69q14 14 30 13q14 0 29 -10q127 -92 262 -92q223 0 223 192q0 70 -50 122t-167 126q-111 68 -168 139.5t-57 171.5q0 125 89 213t226 99l23 126q6 27 43 35q41 10 94 11l-35 -173q57 -6 124 -38.5t91 -65.5q-4 -43 -31 -65q-15 -12 -31 -13q-14 0 -28 8 q-113 68 -201 68q-96 0 -152.5 -49t-56.5 -133q0 -70 46.5 -117t160.5 -121q125 -78 183.5 -148.5t58.5 -166.5q0 -150 -95 -233t-243 -95l-29 -147q-4 -23 -13 -30t-28 -11q-38 -7 -70 -8q-13 0 -26 2l39 190q-86 8 -165.5 50t-106.5 81z" />
<glyph unicode="%" horiz-adv-x="1470" d="M111 831q0 162 90 282t243 120q72 0 146 -43q89 -45 221 -45h23q147 4 231 45q61 27 115 86l39 49q11 13 21 13t20 -13q33 -43 28 -78l-985 -1323q-11 -14 -22 -14l-19 10q-29 25 -33 70l822 1112q-92 -43 -222 -47q-20 -1 -37 -1q-99 0 -145 19q18 -49 19 -131 q0 -160 -88.5 -273.5t-235.5 -113.5q-109 0 -170 77.5t-61 198.5zM240 815q0 -70 27.5 -119t84.5 -49q76 0 131 93q53 90 54 217q0 184 -111 184h-2q-80 0 -132 -100.5t-52 -225.5zM821 252q0 162 87 281.5t239 119.5h2q109 0 166 -79.5t57 -198.5q0 -162 -84 -281 t-233 -119q-111 0 -172.5 78t-61.5 199zM950 229q0 -68 28 -114.5t89 -46.5q74 0 125 94t51 227q0 172 -113 172h-2q-78 0 -128 -101.5t-50 -230.5z" />
<glyph unicode="&#x26;" horiz-adv-x="1267" d="M53 287q0 47 8.5 86t34.5 76l43 59q16 23 65.5 59.5t66.5 47.5l81 55q-100 125 -100 262q0 143 90 234t233 91q117 0 191 -72.5t74 -183.5q0 -61 -20.5 -110t-73 -95t-82.5 -67l-109 -70l240 -276q199 311 258 391q51 66 86 66q59 0 94 -49v-5q-84 -78 -361 -485 q227 -248 263 -293v-6q-66 -31 -148 -31q-33 0 -74 43l-60 69l-85 97q-100 -123 -191.5 -164t-193.5 -41q-145 0 -237.5 87.5t-92.5 224.5zM217 326q0 -98 59.5 -161t155.5 -63h2q143 0 266 154q-264 303 -290 336q-92 -61 -142.5 -121.5t-50.5 -144.5zM395 956v-2 q0 -111 97 -219q66 41 100.5 70t69 81t34.5 111q0 66 -37.5 111t-97.5 45q-76 0 -121 -57.5t-45 -139.5z" />
<glyph unicode="'" horiz-adv-x="309" d="M125 893q43 250 47 410q57 39 123 38h2q34 0 34 -50q0 -20 -5 -48q-39 -195 -99 -309q-41 -37 -102 -41z" />
<glyph unicode="(" horiz-adv-x="636" d="M86 418q0 319 135 587.5t371 428.5q29 -6 49.5 -34t15.5 -46q-430 -362 -430 -920q0 -211 56.5 -409.5t175.5 -335.5q-2 -25 -30 -45.5t-50 -20.5q-96 70 -166 215.5t-98.5 293t-28.5 284.5v2z" />
<glyph unicode=")" horiz-adv-x="636" d="M-31 -295q430 362 430 913q0 492 -231 750q2 23 29.5 44.5t48.5 21.5q147 -111 222 -345.5t75 -455.5v-2q0 -322 -133.5 -581t-378.5 -427q-27 6 -46.5 36t-15.5 46z" />
<glyph unicode="*" horiz-adv-x="704" d="M111 987q-1 6 -1 11q0 24 23 28l209 43l-170 119q-24 18 -24 36q0 10 8 19q20 35 67 60l166 -193l21 246q11 1 22 1l55 -7q37 -11 38 -35q0 -6 -3 -12l-71 -201l208 102q38 -38 38 -88q0 -32 -35 -39l-189 -35l180 -127q23 -15 23 -33q0 -11 -8 -24q-23 -43 -68 -55 l-170 192l-20 -243q-5 -1 -12 -1q-31 0 -81 17q-19 6 -19 30q0 14 7 36l64 178l-219 -111q-27 23 -39 86z" />
<glyph unicode="+" horiz-adv-x="1175" d="M129 455q4 123 66 123h325v210q0 111 -6 166l88 11q7 1 13 0q22 0 30 -12q10 -15 10 -60v-315h392q-2 -63 -15.5 -93t-52.5 -30h-324v-373q0 -49 -77 -59l-58 -5v437h-391z" />
<glyph unicode="," horiz-adv-x="356" d="M-106 -211q78 86 122 204q32 84 32 162q0 32 -5 64q66 45 125 45h2q25 0 38 -32.5t13 -71.5q0 -88 -55 -189.5t-123 -148.5q-46 -33 -130 -33h-19z" />
<glyph unicode="-" horiz-adv-x="569" d="M43 391q8 49 29.5 87t40.5 42q309 39 385 58l4 -7q-6 -41 -34 -85t-69 -54q-55 -16 -174 -31.5t-178 -15.5z" />
<glyph unicode="." horiz-adv-x="356" d="M16 78q0 55 31 90t86 35h2q43 0 67.5 -30t24.5 -75q0 -53 -30.5 -87t-81.5 -34q-47 0 -73 29t-26 72z" />
<glyph unicode="/" horiz-adv-x="702" d="M-2 -193l547 1446q12 33 25.5 45.5t45.5 12.5l84 2l-534 -1432q-18 -45 -33.5 -59.5t-50.5 -14.5h-84z" />
<glyph unicode="0" d="M59 461q0 123 27 251t79 247.5t147.5 196.5t215.5 77h2q96 0 165 -43t104 -118t49 -152.5t14 -167.5q0 -133 -24.5 -262.5t-76.5 -249t-147.5 -192.5t-220.5 -73q-94 0 -162.5 43t-104.5 118t-51.5 155t-15.5 170zM219 440q0 -57 7 -109t24.5 -111.5t56.5 -96.5t96 -37 q78 0 138.5 66.5t93.5 174t49 223.5t16 232q0 340 -178 340h-2q-96 0 -167.5 -110.5t-102.5 -262t-31 -309.5z" />
<glyph unicode="1" d="M197 958q12 41 45 107q303 94 434 168l12 -8q-70 -516 -149 -1174q-4 -29 -11.5 -39t-25.5 -14q-82 -10 -142 -10q88 600 148 1056q-55 -23 -158.5 -52t-150.5 -38z" />
<glyph unicode="2" d="M25 14q2 2 19 36t26 48q313 305 438 473t125 320q0 92 -50.5 150.5t-140.5 58.5q-63 0 -127.5 -32t-89 -53.5t-65.5 -62.5h-4q-24 30 -24 73q0 38 22 62q133 143 331 144q147 0 232.5 -92t85.5 -240q0 -172 -133 -344q-94 -125 -420 -436q85 -6 208 -6q143 0 337 8 q0 -29 -25 -67t-47 -44q-57 -20 -211 -20q-375 0 -483 16z" />
<glyph unicode="3" d="M28 78q-4 21 -5 37q0 18 6 30l4 5q135 -94 286 -95q135 0 216 71t81 200q0 117 -76.5 180t-205.5 63q-51 0 -84 -6l-2 4q2 18 24 54q21 37 31 41q313 51 313 274q0 76 -47 126t-127 50q-135 0 -268 -119q-10 23 -12 31q-1 9 -1 17q0 44 27 73q43 45 124 82t173 37 q135 0 215 -77t80 -195q0 -111 -68.5 -192t-174.5 -120q254 -76 254 -309q0 -188 -131.5 -294.5t-329.5 -106.5q-184 0 -267 73q-26 21 -35 66z" />
<glyph unicode="4" d="M2 436q88 139 312.5 415.5t318.5 352.5q98 66 233 78l2 -6q-188 -180 -377.5 -404.5t-316.5 -414.5q152 -20 385 -21l59 355q51 25 150 38l4 -2l-53 -391q45 0 147 8v-4q-12 -61 -73 -102q-12 -6 -91 -14q-33 -246 -36 -275q-4 -45 -37 -51q-76 -10 -140 -10 q25 117 54 336q-344 4 -492 30q-12 8 -29.5 37t-19.5 45z" />
<glyph unicode="5" d="M41 119h2q2 0 2 2q37 -23 116 -45.5t148 -22.5q156 0 234 75t78 200q0 98 -75 156.5t-231 103.5q-70 20 -186 43l-12 26q98 385 155 543q51 2 269.5 17.5t259.5 15.5l2 -4q-6 -53 -29 -94q-20 -37 -67 -41q-41 -4 -110 -8.5t-140.5 -7.5t-91.5 -5q-55 -158 -97 -330 q197 -43 297 -90q221 -102 221 -313q-2 -184 -133 -292.5t-331 -108.5q-174 0 -246 61q-18 14 -29 50q-7 26 -7 50q0 10 1 19z" />
<glyph unicode="6" d="M39 426q0 338 225 580q100 109 221 174t190.5 80.5t119.5 15.5q74 0 108 -72l-4 -4q-299 -49 -469 -219q-111 -109 -167 -256t-56 -299q0 -84 18.5 -156.5t71.5 -128t135 -55.5q109 0 173.5 86t64.5 209q0 98 -46 162.5t-139 64.5q-94 0 -188 -65l-6 6q-2 29 13 63.5 t38 53.5q86 68 203 67q135 0 212 -95t77 -237q0 -188 -118 -307t-296 -119q-188 0 -284.5 125t-96.5 326z" />
<glyph unicode="7" d="M84 -18q186 197 376.5 513t276.5 580q-25 0 -193.5 -1t-305.5 -1q-100 0 -101 33q-2 18 19.5 54t48.5 61q33 -12 184 -13h518q0 -76 -43 -200q-104 -287 -275 -570.5t-274 -394.5q-68 -76 -149 -78q-35 0 -82 10v7z" />
<glyph unicode="8" d="M35 276q0 61 21.5 111.5t63.5 90.5t79 64.5l94 59.5q16 10 24 14q-84 68 -125.5 134.5t-41.5 156.5q0 133 98 229.5t256 96.5h2q135 0 226 -80t91 -205q0 -63 -19.5 -112.5t-63.5 -91.5t-74.5 -63.5t-96.5 -59.5q137 -88 186.5 -162t49.5 -160q0 -127 -100.5 -225.5 t-301.5 -98.5q-184 0 -276 92t-92 209zM195 289q0 -90 64.5 -148.5t162.5 -58.5h2q100 0 160.5 56.5t60.5 144.5q0 70 -56.5 127t-182.5 143q-113 -66 -162 -124t-49 -140zM299 934q0 -74 44 -130t142 -124q102 63 145.5 121.5t43.5 146.5q0 74 -52.5 127t-123.5 53h-2 q-90 0 -143.5 -58t-53.5 -136z" />
<glyph unicode="9" d="M66 20q211 33 378 179q246 205 246 583q0 141 -54 241.5t-165 100.5q-98 0 -158.5 -81.5t-60.5 -196.5q0 -111 59.5 -176.5t147.5 -65.5q82 0 153 39l4 -4q2 -23 -8 -56.5t-24 -47.5q-20 -20 -74.5 -37t-108.5 -17q-137 0 -221 92.5t-84 241.5q0 178 111.5 298t277.5 120 q186 0 279.5 -133t93.5 -326q0 -215 -96 -407.5t-299 -319.5q-166 -111 -299 -110q-33 0 -60.5 24t-37.5 59z" />
<glyph unicode=":" horiz-adv-x="356" d="M16 74q0 57 31 93t86 36h2q41 0 65.5 -30t24.5 -75q0 -53 -29.5 -87t-78.5 -34q-45 0 -73 25t-28 72zM98 729q0 57 31 93t86 36h2q43 0 67.5 -30.5t24.5 -73.5q0 -55 -30.5 -88t-81.5 -33q-45 0 -72 24.5t-27 71.5z" />
<glyph unicode=";" horiz-adv-x="356" d="M-106 -211q78 86 122 205q32 84 32 162q0 32 -5 63q59 45 125 45h2q25 0 38 -32.5t13 -75.5q0 -82 -56 -183.5t-122 -150.5q-46 -33 -130 -33h-19zM94 731q0 55 31 91t84 36h2q45 0 69.5 -30.5t24.5 -75.5q0 -53 -30.5 -86t-79.5 -33q-45 0 -73 25.5t-28 72.5z" />
<glyph unicode="&#x3c;" horiz-adv-x="1175" d="M158 444q0 51 22 80l686 412q13 8 24 8q19 0 32 -22q16 -41 20 -91l-620 -356v-6l620 -354q0 -51 -24 -97q-10 -18 -27 -18q-11 0 -25 8l-680 398q-28 18 -28 38z" />
<glyph unicode="=" horiz-adv-x="1175" d="M127 244q4 123 66 123h854q-2 -66 -15.5 -94.5t-50.5 -28.5h-854zM127 645q4 123 66 123h854q-2 -66 -15.5 -94.5t-50.5 -28.5h-854z" />
<glyph unicode="&#x3e;" horiz-adv-x="1175" d="M217 115l621 356v6l-621 352q0 49 25 99q16 29 53 8l678 -397q29 -14 28 -37q0 -51 -22 -80l-686 -412q-37 -20 -55 17q-15 27 -21 88z" />
<glyph unicode="?" horiz-adv-x="622" d="M113 592q0 72 48 132q50 62 154 126q82 49 119 88t37 86q0 41 -30.5 68.5t-88.5 27.5q-68 0 -151 -47q-20 -12 -39 -3t-25 40q-6 23 -2 43q102 90 248 90h2q106 0 177 -59.5t71 -159.5q0 -86 -52.5 -146.5t-158.5 -123.5q-84 -53 -119 -88q-33 -33 -33 -79v-5 q2 -47 46 -79q41 -30 113 -30h9h29q2 -51 -27.5 -75.5t-81.5 -24.5q-98 0 -171 56q-74 58 -74 163zM143 78q0 53 33 88t84 35h2q47 0 71.5 -30t24.5 -77q0 -51 -31.5 -84t-80.5 -33q-47 0 -75 28t-28 73z" />
<glyph unicode="@" horiz-adv-x="1519" d="M84 344q0 338 214 564.5t562 226.5q258 0 422 -153t164 -409q0 -213 -113.5 -359t-292.5 -146q-158 0 -158 167q0 28 5 60q-61 -113 -147.5 -170t-170.5 -57q-80 0 -116.5 67.5t-36.5 155.5q0 211 124 366.5t334 155.5q84 0 220 -33q-66 -279 -78 -432q-4 -30 -4 -55 q0 -119 82 -119q100 0 165.5 107.5t65.5 273.5q0 211 -128 344t-339 133q-293 0 -465 -193.5t-172 -476.5q0 -242 135.5 -390t374.5 -148q190 0 352 100h4q10 -18 3 -55t-29 -53q-135 -100 -379 -101q-272 0 -435 176.5t-163 452.5zM563 313q0 -129 70 -129q74 0 155.5 98.5 t124.5 280.5q10 35 29 137q-33 14 -84 15h-2q-96 0 -165.5 -65.5t-98.5 -154t-29 -182.5z" />
<glyph unicode="A" horiz-adv-x="1228" d="M-31 10v4q612 1120 654 1205l-13 38q72 29 129 29q18 0 29 -29l233 -829q88 -311 125 -416v-4q-70 -20 -139 -20q-18 0 -27.5 11t-19.5 48l-109 373h-485l-215 -406q-14 -27 -45 -26q-54 -1 -117 22zM403 535h406l-141 516z" />
<glyph unicode="B" horiz-adv-x="1024" d="M88 29l72 466t63 410q2 10 39 260q-20 -2 -98 -16l-2 2q8 70 47 98q135 41 307 41q190 0 291.5 -78.5t101.5 -220.5q0 -221 -237 -311q250 -72 250 -297q0 -199 -150.5 -301t-363.5 -102q-152 0 -320 49zM272 113q51 -25 154 -25q139 0 230.5 76t91.5 205v2 q0 117 -84 179t-215 64q-68 0 -107 -6q-8 -68 -35 -251t-35 -244zM356 715q88 0 136 4q119 12 186 74.5t67 177.5v2q0 78 -39.5 127t-89 64.5t-104.5 15.5q-70 0 -90 -4z" />
<glyph unicode="C" horiz-adv-x="1087" d="M84 555q0 127 44 255t130 242.5t235.5 186.5t335.5 72q90 0 167 -20.5t110 -51.5q-4 -43 -26 -72q-14 -19 -37 -19q-11 0 -25 5q-84 37 -191 37q-242 0 -402.5 -175t-160.5 -454q0 -205 109.5 -338t312.5 -133q168 0 307 70l2 -2q0 -82 -39 -121q-117 -68 -315 -68 q-266 0 -411.5 160t-145.5 426z" />
<glyph unicode="D" horiz-adv-x="1275" d="M90 33q27 170 68 455.5t57 385.5q31 217 41 281q-49 -4 -88 -12l-4 2q0 23 12 55.5t27 46.5q145 43 338 43q326 0 495 -147q168 -146 168 -450q0 -335 -212 -525q-210 -188 -529 -188q-187 0 -373 53zM274 117q70 -25 191 -25q240 0 400.5 150.5t160.5 433.5v2 q0 498 -504 498q-51 0 -100 -7q-13 -81 -148 -1052z" />
<glyph unicode="E" horiz-adv-x="878" d="M90 45l135 946q14 104 33 262q74 20 145 27h451q-6 -66 -47 -100q-31 -14 -152 -15h-243l-62 -450h430q-16 -74 -47 -94.5t-98 -20.5h-303l-66 -483q55 -14 248 -15q205 0 285 11l2 -4q-6 -35 -32 -67t-56 -44q-41 -10 -238 -10q-258 0 -360 20z" />
<glyph unicode="F" horiz-adv-x="851" d="M84 23l145 1009q10 68 25 223q33 12 152 25h497q-8 -68 -53 -100q-31 -14 -145 -15h-297l-64 -493h447q-14 -53 -36 -79t-42.5 -31t-61.5 -5h-327q-23 -193 -72 -559q-33 -10 -135 -10q-20 0 -27.5 7.5t-5.5 27.5z" />
<glyph unicode="G" horiz-adv-x="1228" d="M84 571q0 92 23.5 189.5t79 198t137.5 177t212 126t287 49.5h2q106 0 198.5 -28t135.5 -66q-16 -82 -67 -83q-17 0 -37 9q-129 47 -230 47q-252 0 -406.5 -177t-154.5 -435q0 -225 119 -360.5t340 -135.5q100 0 149 20q63 389 64 494q78 18 139 18q37 0 31 -41 q-4 -43 -31.5 -231t-44.5 -315q-182 -57 -352 -58q-281 0 -437.5 158.5t-156.5 443.5z" />
<glyph unicode="H" horiz-adv-x="1263" d="M78 -12q23 137 145 1016q31 229 31 268q100 14 141 14q18 0 22 -21q1 -5 0 -13q0 -26 -7 -85l-60 -450h615l71 506q4 33 15.5 44t33.5 15q74 4 127 4l-145 -1032l-23 -168l-10 -86q-35 -12 -139 -12q-35 0 -29 37l82 581q-45 -4 -280 -4h-334l-74 -553q-4 -31 -15.5 -42 t-35.5 -15q-57 -5 -102 -5q-15 0 -29 1z" />
<glyph unicode="I" horiz-adv-x="481" d="M86 25l135 981q14 96 33 266q68 14 139 14q20 0 23.5 -20.5t-6.5 -98.5l-125 -913l-23 -168l-10 -86q-39 -12 -139 -12q-33 0 -27 37z" />
<glyph unicode="J" horiz-adv-x="483" d="M-188 -209l4 4q150 10 208 94t99 369q51 356 94 705q18 160 31 309q86 14 147 14q29 0 21 -67q-35 -287 -135 -1026q-18 -135 -55.5 -232.5t-76 -147t-90 -77t-85 -33.5t-74.5 -6q-37 0 -59.5 29.5t-28.5 64.5z" />
<glyph unicode="K" horiz-adv-x="1136" d="M82 25l141 958q10 63 37 289q68 14 137 14q23 0 25 -27.5t-6 -66.5l-80 -539l686 645q53 2 104 -12q47 -16 7 -59l-619 -565l286 -366q169 -210 255 -292l-2 -6q-39 -14 -135 -14q-57 0 -138 92l-144 178l-198 251q-100 128 -104 134l-82 -639q-49 -12 -143 -12 q-33 0 -27 37z" />
<glyph unicode="L" horiz-adv-x="864" d="M90 45l131 961q29 207 31 266q82 14 141 14q10 0 15.5 -8t4.5 -33.5t-7 -77.5l-138 -1050q55 -14 246 -15q203 0 270 11l2 -4q-6 -35 -31.5 -67t-56.5 -44q-41 -10 -229 -10q-250 0 -352 20q-7 6 -27 37z" />
<glyph unicode="M" horiz-adv-x="1632" d="M29 2l342 1219l-6 39q57 27 133 26q27 0 39 -59l57 -226l97 -372l95 -361l504 977l4 23q41 18 133 18q25 0 25 -45q0 -293 -2 -596t-2 -431t4 -210q-45 -16 -139 -16q-29 0 -29 39q4 86 7 238.5t9.5 384t10.5 405.5l-263 -534q-204 -409 -251 -511q-47 -25 -107 -28 q-66 328 -248 1056q-88 -401 -258 -1022q-8 -29 -45 -28q-77 0 -110 14z" />
<glyph unicode="N" horiz-adv-x="1280" d="M78 -12q61 389 170 1149q2 13 2 24q0 23 -8 39l-35 64v8q76 14 145 14q23 0 45.5 -32.5t78.5 -133.5l146 -259l144 -257q150 -262 190 -354q16 184 48 405l75 574q6 45 45 51q63 6 107 6q-127 -846 -178 -1286q-47 -27 -95 -27q-20 0 -38 35l-100 174l-149 263l-141 255 l-172 334l-51 -438l-71 -547q-4 -31 -14.5 -41t-31.5 -14q-38 -6 -112 -6z" />
<glyph unicode="O" horiz-adv-x="1300" d="M86 535q0 197 73.5 370.5t226.5 289.5t355 116h2q244 0 370 -161t126 -409q0 -143 -39 -276t-114.5 -246t-205.5 -181.5t-294 -68.5q-238 0 -369 153t-131 413zM266 526q0 -190 85 -317t251 -127q150 0 256.5 103.5t153.5 250t47 312.5q0 88 -16.5 163.5t-53.5 142 t-104.5 105.5t-161.5 39h-2q-195 0 -325 -196.5t-130 -475.5z" />
<glyph unicode="P" horiz-adv-x="987" d="M90 27q47 297 166 1136q-16 -2 -51 -7t-47 -7l-4 4q4 59 41 96q131 41 307 41q227 0 343 -99t116 -290q0 -203 -131.5 -311.5t-286.5 -108.5q-84 0 -123 25q-16 8 -29.5 41t-15.5 59l4 4q53 -16 115 -16q131 0 210.5 74.5t79.5 230.5q0 133 -76.5 206t-213.5 73 q-59 0 -72 -4l-164 -1172q-35 -14 -137 -14q-32 0 -32 28q0 5 1 11z" />
<glyph unicode="Q" horiz-adv-x="1296" d="M84 530q0 203 73.5 377t227.5 289t356 115q244 0 370 -163t126 -411q0 -252 -114.5 -456.5t-331.5 -272.5q33 -10 163 -94q225 -150 363 -160v-6q-37 -78 -146 -78q-123 0 -370 170q-109 74 -158 97.5t-137 35.5q-205 27 -313.5 174t-108.5 383zM264 532 q0 -195 85 -322.5t251 -127.5q150 0 257.5 103.5t153.5 252t46 316.5q0 115 -30 211t-107.5 164.5t-194.5 68.5h-2q-195 0 -327 -195t-132 -471z" />
<glyph unicode="R" horiz-adv-x="1060" d="M76 -12q84 475 178 1173q-8 -2 -96 -18l-4 4q4 57 45 98q139 45 315 45q195 0 299.5 -91t104.5 -251q0 -133 -80 -230t-222 -147q27 -25 164.5 -265t192.5 -302v-4q-33 -16 -107 -16q-43 0 -73.5 21.5t-67.5 82.5l-193 330q-41 74 -67 93q-24 18 -73 18q-5 0 -11 -1h-53 l-72 -481q-4 -31 -16.5 -42t-36.5 -15q-37 -4 -75 -4q-26 0 -52 2zM344 635q166 0 254 43q152 74 152 260q0 109 -68 173.5t-193 64.5q-51 0 -71 -2z" />
<glyph unicode="S" horiz-adv-x="868" d="M24 140q0 50 42 77q55 -51 137 -88t164 -37q109 0 174 52.5t65 158.5q0 70 -52 135.5t-173 153.5q-131 98 -186.5 182t-55.5 187q0 156 104.5 253t272.5 97h2q78 0 156 -28t114 -69q-4 -37 -29.5 -64.5t-51.5 -14.5q-94 57 -191 57q-106 0 -163.5 -55.5t-57.5 -149.5 q0 -76 50 -137.5t173 -153.5q125 -96 187.5 -175t62.5 -185q0 -170 -115.5 -268.5t-298.5 -98.5q-184 0 -295 103q-35 30 -35 68z" />
<glyph unicode="T" horiz-adv-x="1069" d="M111 1200q16 59 57 90q43 -10 297 -10h678q-10 -109 -103 -115h-348l-125 -913q-27 -201 -28 -252q-39 -12 -144 -12q-29 0 -26 35l157 1142h-372q-29 0 -38 9q-6 6 -7 16q1 4 2 10z" />
<glyph unicode="U" horiz-adv-x="1290" d="M158 645l47 356l22 162l15 107q55 16 135 16q18 0 21 -22q1 -5 1 -14q0 -27 -8 -87l-69 -534q-11 -87 -12 -160q0 -375 300 -375q82 0 140.5 23.5t113 87t92 185.5t62.5 306l72 525q8 57 38 59q57 6 117 6q-6 -39 -13 -92l-20 -143l-22 -162l-37 -260q-27 -193 -79 -326 t-129 -203.5t-162 -99.5t-193 -29q-254 0 -366 161q-80 115 -79 326q0 86 13 187z" />
<glyph unicode="V" horiz-adv-x="1183" d="M131 1255q55 31 131 31h2q23 0 32 -20.5t26 -89.5l221 -967l557 1077q84 -4 117 -20q14 -6 13 -23q0 -18 -16 -47l-612 -1137q-31 -57 -57 -69q-20 -10 -105 -17q-207 893 -309 1282z" />
<glyph unicode="W" horiz-adv-x="1740" d="M133 1253q51 33 137 33h2q27 0 45 -115l138 -948l422 998q2 6 2 34q80 31 116 31q25 0 31 -53q113 -723 154 -1010q451 1018 469 1063q61 0 102 -10q35 -8 35 -30q0 -8 -4 -17q-92 -209 -295 -633l-250 -524q-29 -59 -57 -76q-33 -18 -109 -19l-153 1045l-410 -967 q-20 -45 -51 -61q-35 -18 -107 -19l-62 391l-85 512q-35 199 -70 375z" />
<glyph unicode="X" horiz-adv-x="1085" d="M-39 8v4l506 643q-18 37 -328 607v2q86 23 137 22q16 0 28.5 -12t33.5 -51l235 -439l371 469q27 33 47 33q61 0 119 -29v-4l-471 -585q342 -629 360 -658v-4q-41 -18 -143 -18q-31 0 -51 35l-275 512l-399 -523q-20 -25 -53 -24q-68 0 -117 20z" />
<glyph unicode="Y" horiz-adv-x="1103" d="M127 1260v6q86 20 143 20q35 0 70 -78q29 -63 112 -230t126 -261q53 63 231 301.5t203 267.5q59 -2 110 -18q37 -14 -4 -64q-119 -137 -469 -596q-18 -27 -24 -71l-35 -283q-16 -141 -27 -254q-55 -12 -141 -12q-18 0 -23.5 6t-3.5 31l60 479q6 55 2 94q-8 45 -45 117 q-174 352 -285 545z" />
<glyph unicode="Z" horiz-adv-x="1028" d="M0 53q197 248 440.5 594t350.5 518h-564q-43 0 -64.5 5.5t-26.5 13.5t-1 22q16 53 62 88q43 -14 170 -14h649q-2 -37 -41 -119q-84 -137 -304 -462l-415 -586q117 -12 369 -12.5t342 8.5v-5q-12 -37 -45 -70.5t-56 -37.5q-31 -8 -299 -8q-414 0 -534 16q-33 18 -33 49z " />
<glyph unicode="[" horiz-adv-x="636" d="M88 -334q-2 53 92 766q111 838 133 909q16 10 134 24q102 12 167 12q10 0 19 -1q10 -20 10 -45q0 -11 -2 -22q0 -18 -37 -23q-119 -18 -143 -22q-27 -6 -39 -52q-6 -33 -109 -798q-74 -588 -73 -637q0 -35 36 -41q16 -4 154 -21q23 -4 21 -20q-6 -39 -31 -66 q-70 0 -148.5 7.5t-128 15.5t-55.5 14z" />
<glyph unicode="\" horiz-adv-x="659" d="M184 1302q12 7 39 7l62 2l264 -1440q2 -15 2 -25q0 -16 -5 -23q-9 -11 -40 -11l-76 -7l-258 1446q-3 12 -3 22q0 20 15 29z" />
<glyph unicode="]" horiz-adv-x="636" d="M-16 -305q2 16 41 22q133 20 143 23q27 6 35 51q16 70 112 797q74 588 74 637q0 33 -37 39q-45 12 -153 22q-20 2 -19 25q6 35 29 63q92 0 203.5 -13t126.5 -24q-2 -53 -15.5 -166.5t-38.5 -304.5l-36 -293q-94 -770 -134 -913q-16 -8 -134 -22q-103 -13 -171 -13h-18 q-9 26 -9 52q0 9 1 18z" />
<glyph unicode="^" horiz-adv-x="1175" d="M139 463l344 731q10 29 49 33q66 8 103 6l360 -770q-12 -10 -50 -22.5t-64 -12.5q-25 0 -45 47l-273 612l-276 -626q-14 -33 -35 -33q-18 0 -57.5 11.5t-55.5 23.5z" />
<glyph unicode="_" horiz-adv-x="1024" d="M-59 -154h1024v-102h-1024v102z" />
<glyph unicode="`" horiz-adv-x="819" d="M272 1323q-7 9 -7 18q0 11 11 21q56 39 99 39h8h2q23 -2 78 -109.5t82 -185.5q3 -12 3 -21q0 -18 -13 -26q-31 -23 -52 -25q-109 174 -211 289z" />
<glyph unicode="a" horiz-adv-x="989" d="M45 250q0 127 52.5 271.5t158.5 248.5q156 150 391 150q78 0 256 -41q-49 -227 -92 -605q-19 -142 -19 -237q0 -17 1 -33q-61 -29 -142 -29q-7 0 -7 55v14q1 69 11 169l8 58q5 42 7 53q-90 -168 -211 -258.5t-238 -90.5q-80 0 -128 69t-48 204v2zM213 262 q0 -70 21.5 -110.5t60.5 -40.5h2q115 0 249 176t175 424q2 8 7 37.5t7 37.5q-49 20 -114 21q-174 0 -281 -135q-127 -170 -127 -410z" />
<glyph unicode="b" horiz-adv-x="1011" d="M74 92q84 526 139 973q33 276 35 301q98 27 145 27q19 0 19 -34q0 -17 -4 -42q-4 -20 -22 -149l-40 -284q-23 -157 -43 -276q88 143 201.5 227.5t228.5 84.5q102 0 151.5 -87.5t49.5 -195.5q0 -268 -152.5 -465t-410.5 -197h-2q-80 0 -164 29t-131 88zM242 143 q45 -51 145 -51q178 0 277.5 162t99.5 367q0 74 -25.5 117.5t-70.5 43.5h-2q-117 0 -245 -153.5t-165 -380.5l-7 -52z" />
<glyph unicode="c" horiz-adv-x="782" d="M51 303q0 244 145.5 430.5t376.5 186.5h2q49 0 96.5 -15.5t63.5 -38.5q0 -31 -20.5 -61.5t-38.5 -26.5q-61 23 -115 23q-150 0 -246 -138.5t-96 -334.5q0 -223 164 -224q141 0 276 136q25 -14 25 -58q0 -41 -33 -76q-127 -131 -323 -131q-121 0 -199 79t-78 249z" />
<glyph unicode="d" horiz-adv-x="1007" d="M43 270q0 162 63.5 308.5t192.5 244t293 97.5q96 0 166 -48q57 307 69 494q80 27 142 27q15 0 14 -35q0 -19 -4 -47q-123 -776 -152 -1024q-17 -142 -17 -245q0 -21 1 -40q-63 -27 -143 -27q-8 0 -8.5 78t8.5 160q2 14 7 54t5 46q-84 -154 -202 -246t-240 -92h-2 q-90 0 -141.5 77t-51.5 218zM211 285q0 -80 25.5 -126t72.5 -46h2q111 0 246 168t174 409q6 45 10 66q-59 51 -151 51q-170 0 -274.5 -156.5t-104.5 -365.5z" />
<glyph unicode="e" horiz-adv-x="813" d="M49 311q0 231 134 420t354 189h2q96 0 152.5 -50.5t56.5 -134.5q0 -86 -52.5 -152.5t-135.5 -105.5t-171 -60.5t-174 -25.5q-4 -23 -4 -72q0 -100 42 -157.5t126 -57.5q156 0 295 148q23 -12 22 -55q0 -49 -30 -84q-123 -137 -338 -138q-279 0 -279 336zM227 500 q188 12 282.5 75.5t94.5 149.5q0 39 -25.5 64.5t-68.5 25.5h-2q-100 0 -176 -90t-105 -225z" />
<glyph unicode="f" horiz-adv-x="497" d="M-293 -339q6 36 27 50q66 -35 123 -35q104 0 154 98.5t87 352.5q35 227 84 637h-147q4 35 21.5 71.5t41.5 38.5h97q23 166 63.5 277t94 163t102.5 70.5t110 18.5q90 0 131 -41q2 -31 -14 -60.5t-41 -27.5q-39 14 -72 14q-88 0 -137 -94t-80 -320q197 0 230 7 q-20 -76 -60 -101q-27 -16 -184 -16q-57 -453 -94 -698q-41 -283 -136.5 -396.5t-236.5 -113.5q-41 0 -86 13t-59 30q-20 21 -20 48q0 7 1 14z" />
<glyph unicode="g" horiz-adv-x="829" d="M-76 -182q0 98 221 225q-61 47 -61 111q0 23 35 57.5t76 58.5q-115 70 -115 236t104.5 290t274.5 124h2q88 0 166 -48q29 -16 53 -12q72 0 182 25q-8 -31 -18 -131q-14 0 -67.5 1t-71.5 1q25 -49 24 -129q0 -182 -108.5 -289t-260.5 -109q-47 0 -88 13q-37 -33 -36 -52 q0 -43 88 -67q201 -53 276 -80q72 -27 111 -79t39 -116q0 -125 -115 -220t-299 -95q-201 0 -306.5 90.5t-105.5 194.5zM74 -164q0 -76 84 -130t209 -54h2q106 0 168.5 46t62.5 107q0 43 -25.5 72t-91.5 53q-115 39 -250 68q-66 -35 -112.5 -81t-46.5 -81zM236 506 q0 -176 135 -176q96 0 153.5 95t57.5 224v2q0 72 -33 120t-100 48q-92 0 -152.5 -92t-60.5 -221z" />
<glyph unicode="h" horiz-adv-x="1021" d="M53 -16q45 225 162 1075q33 283 35 307q84 27 143 27q16 0 17 -41q0 -20 -4 -52l-109 -733q96 174 216 263.5t230 89.5h2q76 0 115 -54q38 -52 38 -121q0 -66 -9 -149l-31 -178l-24 -142q-29 -172 -33 -272q-61 -29 -150 -29q-6 0 -8 26v13q0 27 5 78q7 66 24 160l63 377 q6 36 6 63q0 94 -69 94q-49 0 -110.5 -40.5t-126 -120.5t-121 -219.5t-85.5 -311.5q-10 -70 -28 -82q-35 -24 -148 -28z" />
<glyph unicode="i" horiz-adv-x="440" d="M61 -16q70 465 78 526q43 330 43 377q20 8 73.5 20.5t68.5 12.5h2q17 0 17 -38q0 -16 -3 -38l-104 -770q-8 -49 -29 -62q-46 -24 -146 -28zM215 1252q0 52 31 77q33 27 65 27h2q80 0 82 -88v-6q0 -47 -29 -74q-32 -29 -69 -29q-82 0 -82 93z" />
<glyph unicode="j" horiz-adv-x="448" d="M-233 -367q-2 12 -2 23q0 24 10 35q37 -14 80 -15q94 0 143 79t78 265l84 568q29 213 28 299q20 8 71.5 20.5t72.5 12.5h2q14 0 13 -40q0 -20 -3 -51q-23 -193 -108 -778q-70 -496 -359 -495q-53 0 -80 20q-24 16 -30 57zM217 1247q0 57 32 83t64 26h2q80 0 82 -90 q0 -53 -30.5 -80t-69.5 -27q-33 0 -55.5 22.5t-24.5 65.5z" />
<glyph unicode="k" horiz-adv-x="909" d="M47 -16q53 246 168 1077q35 281 35 303q86 29 143 29q18 0 19.5 -27t-4.5 -61l-119 -799q102 100 383 334q94 80 129 80q27 0 53.5 -26t26.5 -48q-59 -35 -205 -154l-234 -196q53 -86 182.5 -251t192.5 -218q-8 -18 -49 -35t-76 -17q-37 0 -125 97q-55 66 -146 186.5 t-138 194.5q-43 -283 -56 -349q-12 -76 -32 -92q-42 -28 -148 -28z" />
<glyph unicode="l" horiz-adv-x="440" d="M53 -16q25 143 83.5 539.5t76.5 537.5q37 276 39 307q57 25 141 25q15 0 16 -40q0 -18 -3 -44q-57 -424 -175 -1223q-10 -63 -36 -76q-48 -22 -142 -26z" />
<glyph unicode="m" horiz-adv-x="1591" d="M53 -16q35 193 88 540q35 250 36 343q0 10 -1 18q18 8 73.5 21.5t74.5 13.5q8 0 11 -24q1 -10 1 -28q0 -23 -2 -59q-4 -63 -19 -162q-2 -12 -5 -36.5t-5 -39.5h6q84 156 200 252.5t230 96.5q80 0 124 -69q28 -44 29 -127q0 -46 -9 -105q-2 -10 -3 -22.5t-3 -21.5h6 q90 164 203.5 254.5t228.5 90.5q88 0 130 -81q26 -50 26 -133q0 -53 -11 -120l-53 -310q-27 -174 -31 -272q-51 -29 -151 -29q-6 4 -6 36t7 97.5t19 135.5q2 8 26.5 145t35.5 213q7 41 6 73q0 107 -74 107q-45 0 -101.5 -37.5t-121 -113.5t-121.5 -219.5t-90 -325.5 q-12 -61 -39 -76q-39 -25 -139 -26q82 430 104 624q5 35 5 64q0 110 -70 110q-41 0 -98.5 -37.5t-123 -113.5t-125 -219.5t-92.5 -325.5q-10 -59 -36 -76q-38 -24 -140 -26z" />
<glyph unicode="n" horiz-adv-x="1019" d="M53 -16q37 188 88 540q35 252 36 343q0 10 -1 18q16 8 73.5 21.5t74.5 13.5q6 0 8 -25q1 -8 0 -21q0 -25 -2 -67q-4 -63 -17 -158q-2 -14 -5 -41l-5 -43h4q88 162 204 258.5t234 96.5q153 0 154 -210q0 -53 -10 -120q-6 -45 -23.5 -145.5t-27.5 -168.5q-31 -203 -31 -272 q-23 -10 -76 -19.5t-78 -9.5q-6 0 -6 30t7.5 94.5t21.5 146.5q4 29 26.5 156.5t32.5 201.5q5 38 5 68q0 110 -70 110q-47 0 -107.5 -41t-124 -119.5t-121 -220t-88.5 -315.5q-10 -59 -41 -78q-37 -22 -135 -24z" />
<glyph unicode="o" horiz-adv-x="944" d="M51 324q0 229 134 412.5t358 183.5h2q160 0 235.5 -96.5t75.5 -254.5q0 -252 -140.5 -423t-350.5 -171q-314 1 -314 349zM225 309q0 -115 44 -170t116 -55q117 0 207 142.5t90 367.5q0 90 -37 153.5t-121 63.5h-2q-121 0 -209 -150.5t-88 -351.5z" />
<glyph unicode="p" horiz-adv-x="1019" d="M-14 -444q86 492 157 1005q39 266 41 332q23 16 80 32q51 14 79 13h7q-14 -115 -47 -332h6q190 313 424 314q109 0 159 -89.5t50 -201.5q0 -170 -60.5 -317.5t-179 -242t-270.5 -94.5q-133 0 -209 76l-61 -387q-10 -70 -41 -84q-45 -20 -135 -24zM246 180q61 -78 172 -78 q170 0 262 152t92 356q0 78 -26.5 125t-77.5 47h-2q-111 0 -243 -159.5t-169 -393.5q-6 -31 -8 -49z" />
<glyph unicode="q" horiz-adv-x="1001" d="M41 258v2q0 113 35 225.5t103.5 212t185 161t262.5 61.5q123 0 291 -50q-43 -233 -189 -1220q-8 -51 -39 -70q-37 -20 -139 -24q10 45 30 164l47 295l44 276q-88 -152 -203 -234t-233 -82q-86 0 -140.5 72t-54.5 211zM209 272q0 -70 24.5 -116.5t71.5 -46.5 q111 0 246 159.5t184 450.5q2 10 5 33.5t3 31.5q-59 23 -139 23q-129 0 -222 -87t-133 -205t-40 -241v-2z" />
<glyph unicode="r" horiz-adv-x="684" d="M51 -16q61 305 101 641q15 107 14 179q0 48 -6 81q18 10 68.5 22.5t70.5 12.5q8 0 13 -32q3 -20 4 -59q0 -23 -2 -54q-3 -81 -19 -189h6q76 164 166 249t166 85q51 0 74 -35q2 -31 -16.5 -75t-41.5 -69q-41 20 -69 21q-20 0 -48 -16.5t-70 -63.5t-82 -117.5t-80 -195.5 t-69 -283q-14 -63 -41 -78q-43 -20 -139 -24z" />
<glyph unicode="s" horiz-adv-x="692" d="M24 124q9 40 27 44q104 -72 213 -72q78 0 120 36t42 93q0 43 -30.5 79t-135.5 106q-86 59 -118.5 111t-32.5 120q0 117 90 198t225 81h2q53 0 107.5 -19.5t78.5 -50.5q-6 -39 -28.5 -65.5t-55.5 -12.5q-82 31 -122 31q-63 0 -105.5 -36t-42.5 -93q0 -45 32 -81t138 -106 q92 -63 123 -113t31 -116q0 -117 -93.5 -200t-238.5 -83q-80 0 -138.5 25t-80.5 55q-10 18 -11 42q1 13 4 27z" />
<glyph unicode="t" horiz-adv-x="620" d="M59 764q0 35 19.5 72.5t46.5 37.5h90q39 201 74 230q51 41 129 41l-21 -117l-26 -154q205 0 258 9q-16 -74 -60 -103q-29 -16 -219 -16q-39 -229 -76 -500q-4 -34 -4 -60q0 -98 60 -98q92 0 196 121h4q9 -19 9 -42q0 -15 -3 -31q-9 -43 -36 -72q-100 -106 -238 -107 q-151 0 -151 202q0 46 8 104q12 84 40.5 257l37.5 226h-138z" />
<glyph unicode="u" horiz-adv-x="1011" d="M106 309l50 291q29 186 39 285q16 8 71.5 21.5t75.5 13.5q16 0 16 -31q0 -15 -4 -39l-92 -563q-5 -35 -5 -63q0 -114 81 -113q45 0 100.5 34.5t115.5 108.5t115.5 215t84.5 328q8 51 16 69.5t27 28.5q65 25 121 25h16q-61 -244 -107 -650q-17 -164 -16 -248v-18 q-61 -29 -143 -29q-6 0 -9 34q-1 10 0 23q0 32 4 82q5 71 15 162l-4 3q-168 -303 -410 -304q-168 0 -168 213q-1 54 10 121z" />
<glyph unicode="v" horiz-adv-x="860" d="M115 889q16 8 70.5 19.5t70.5 11.5q20 0 20 -48v-52q0 -238 17 -523q10 -104 20 -123q135 125 251 317.5t116 352.5q0 35 -2 51q98 25 115 25q23 0 22 -101v-2q0 -152 -121 -356q-156 -260 -346 -424q-29 -23 -59 -37q-59 -25 -99 -25q-35 51 -49 279q-26 326 -26 635z " />
<glyph unicode="w" horiz-adv-x="1337" d="M129 891q86 29 143 29q23 0 21 -48q-11 -349 -11 -492q0 -24 1 -42q0 -109 12 -150q68 88 182.5 273.5t169.5 320.5q2 35 4 49q70 35 121 35h2q20 0 21 -47q0 -135 16 -363.5t35 -275.5q115 129 212 311.5t97 342.5q0 18 -4 63q12 6 53 14.5t60 8.5q12 0 19 -33t7 -70 q-2 -188 -134 -407.5t-271 -362.5q-33 -37 -76 -53q-57 -20 -92 -21q-20 57 -40 262t-22 334q-57 -123 -156.5 -277.5t-172.5 -246.5q-25 -33 -66 -49q-70 -18 -94 -21q-31 57 -35 304q-2 106 -2 612z" />
<glyph unicode="x" horiz-adv-x="825" d="M-61 25q0 29 74.5 116.5t293.5 321.5l-209 424v6q16 8 64.5 17.5t75.5 9.5q20 0 43 -50l149 -299q238 248 311 369q25 0 56.5 -27.5t29.5 -56.5q-18 -63 -340 -399q184 -369 232 -449v-4q-43 -16 -135 -16q-33 0 -54 30q-10 18 -165 324q-291 -311 -334 -395 q-25 0 -58.5 27.5t-33.5 50.5z" />
<glyph unicode="y" horiz-adv-x="851" d="M-92 -381q76 68 176 176.5t160 188.5q-29 57 -49 159q-27 135 -61 374t-44 368q70 35 139 35q20 0 25 -37q31 -328 78 -609q12 -84 33 -139q143 205 224 413t89 351q51 20 113 21q18 0 18 -54q0 -121 -78 -326.5t-239 -447.5q-111 -168 -254.5 -333t-212.5 -214 q-43 0 -80 25.5t-37 48.5z" />
<glyph unicode="z" horiz-adv-x="751" d="M-23 55q100 119 292 372t247 353q-25 0 -81 -1t-101 -1q-84 0 -132 1t-78 5t-39 11.5t-5 19.5q6 27 28.5 58.5t38.5 41.5q14 -12 63.5 -15t244.5 -3h2q238 0 276 4q-12 -49 -41 -102q-37 -72 -187.5 -287t-289.5 -391q25 -12 207 -12q233 0 274 10q4 -25 -17.5 -62 t-47.5 -51q-31 -18 -281 -18q-317 0 -354 30z" />
<glyph unicode="{" horiz-adv-x="636" d="M106 608q96 10 137.5 51t51.5 117q6 45 12 314q6 205 133 288q82 51 205 56q5 -12 6 -31q0 -9 -2 -21q0 -16 -8 -24t-33 -15q-164 -45 -164 -249q0 -248 -2 -271q-20 -199 -176 -262q78 -49 99 -126q9 -35 9 -73q0 -46 -14 -96q-6 -35 -33.5 -152.5t-33.5 -179.5 q-3 -23 -3 -44q0 -144 136 -169q25 -8 23 -26q-10 -39 -37 -57q-261 20 -261 263q0 26 3 54q6 61 37.5 201.5t37.5 179.5q3 24 3 45q0 57 -20 92q-28 47 -112 64q-7 2 -6 17q-1 29 12 54z" />
<glyph unicode="|" horiz-adv-x="548" d="M162 -512v2048h137v-2048h-137z" />
<glyph unicode="}" horiz-adv-x="636" d="M-23 -309q4 29 43 39q88 23 126 81t38 160q0 182 11 322q10 113 51 178.5t127 97.5q-57 29 -85 74q-26 42 -26 85q0 39 10 101q55 252 64 306q4 27 4 50q0 136 -139 161q-23 8 -23 28q4 35 37 58q141 -10 209 -95q54 -68 54 -171q0 -25 -3 -52q-8 -61 -37.5 -194.5 t-34.5 -159.5q-3 -20 -3 -38q0 -112 124 -116q10 -10 10 -24q0 -19 -20 -45q-94 -23 -129 -69t-47 -146q-6 -51 -16 -345q-8 -203 -134 -284q-88 -57 -208 -58q-4 10 -4 28q-1 12 1 28z" />
<glyph unicode="~" horiz-adv-x="1175" d="M104 352q39 375 273 375h2q68 0 119 -30.5t116 -96.5l22 -22q15 -16 21.5 -21.5t19.5 -20t19 -19.5l19 -15l19 -15.5t18.5 -11.5t19.5 -9t17.5 -5t19.5 -2q53 0 84 51t43 178q4 31 29 31q59 0 90 -35q-12 -360 -246 -360q-49 0 -98 26.5t-80 54t-90 87.5 q-102 104 -162 104q-106 0 -146 -227q-6 -41 -43 -41q-45 -1 -86 24z" />
<glyph unicode="&#xa1;" horiz-adv-x="364" d="M-23 -299q10 72 65.5 374t66.5 349q6 35 32 53q55 20 78 21q-31 -463 -61 -797q-8 -18 -60.5 -33.5t-87.5 -15.5h-2q-32 0 -32 33q0 7 1 16zM102 795q0 53 32 88t81 35q43 0 70.5 -27t27.5 -72q0 -57 -30.5 -91t-85.5 -34h-2q-41 0 -67 29t-26 72z" />
<glyph unicode="&#xa2;" d="M115 563q0 168 108.5 295t298.5 154l25 118q6 33 49 39q41 7 70 7h14l-31 -160q102 -10 162 -53q-4 -37 -27 -68q-13 -21 -38 -21q-12 0 -27 5q-63 27 -129 26q-145 0 -229.5 -95t-84.5 -232q0 -117 68 -191t178 -74q131 0 236 66q1 -8 1 -16q0 -29 -11 -58 q-14 -37 -37 -53q-70 -47 -187 -55l-28 -148q-6 -39 -54 -47q-25 -2 -80 -2l41 203q-145 25 -216.5 120t-71.5 240z" />
<glyph unicode="&#xa3;" d="M-4 25v36q182 137 207 478q-121 0 -146 18q-4 6 0 16q53 70 156 82q20 303 114.5 450.5t280.5 147.5q119 0 183 -63q0 -35 -20.5 -64.5t-51.5 -19.5q-53 27 -115 27q-47 0 -82 -16.5t-58.5 -56.5t-38.5 -74t-26.5 -102.5t-15.5 -108.5l-12 -122q330 0 364 4 q-10 -57 -40.5 -82.5t-61.5 -29.5q-29 -4 -275 -4q-25 -305 -176 -435q72 -27 193 -47t215 -20q143 0 223 33l2 -4q-12 -84 -70 -119q-55 -33 -184 -33q-243 0 -565 109z" />
<glyph unicode="&#xa4;" d="M37 203l127 139q-78 92 -78 231q0 168 111 283q-49 55 -74 86q-18 19 -18 39q0 16 12 33q25 35 61 45q8 -8 50 -58.5t63 -72.5q82 51 196 51h2q123 0 191 -61q33 33 129 139q54 -31 53 -90q0 -14 -17.5 -37t-70.5 -80q-15 -16 -22 -25q43 -82 43 -188q0 -180 -105 -279 q96 -125 103 -137q-8 -27 -33 -52.5t-49 -31.5q-18 12 -119 152q-74 -51 -180 -51q-94 0 -154 36q-74 -80 -96 -106q-29 -32 -57 -32q-13 0 -25 7q-43 29 -43 60zM219 575q0 -100 54.5 -166.5t148.5 -66.5q106 0 173 80t67 213q0 106 -51.5 172.5t-151.5 66.5h-2 q-100 0 -169 -84t-69 -215z" />
<glyph unicode="&#xa5;" d="M61 311q0 20 10.5 54t20.5 43h238l20 163h-270q6 76 39 97h229q-162 365 -246 518v6q88 27 140 27q18 0 28 -21l90 -213l103 -244l125 177l127 185q57 85 71 103q24 14 59 14q22 0 48 -6q34 -10 34 -24q0 -6 -5 -12l-383 -510h254l-23 -68q-8 -29 -45 -29h-223l-21 -163 h252l-24 -66q-12 -31 -54 -31h-188l-39 -311q-76 -16 -123 -16q-33 0 -29 39l39 288h-254z" />
<glyph unicode="&#xa6;" horiz-adv-x="548" d="M168 -358v716h137v-716h-137zM168 666v716h137v-716h-137z" />
<glyph unicode="&#xa7;" horiz-adv-x="892" d="M41 -168q4 33 25.5 60.5t48.5 7.5q72 -55 161 -56q66 0 109 41q39 37 39 96v11q-8 94 -160 305q-168 236 -168 379q0 229 209 397q29 100 102.5 156.5t178.5 56.5h2q47 0 96 -17.5t74 -45.5q-2 -33 -23.5 -58.5t-50.5 -11.5q-61 27 -104 27q-72 0 -109 -41 q-33 -37 -33 -96v-13q2 -25 8.5 -48.5t26 -57t32.5 -53.5l51 -73l58 -83q84 -125 121 -205t37 -160q0 -117 -46 -217t-173 -211q-35 -90 -109.5 -139t-177.5 -49q-76 0 -140.5 30.5t-84.5 67.5zM219 721q0 -115 162 -344q147 -209 164 -334q100 102 100 272v2 q0 121 -162 347q-150 207 -168 307q-96 -103 -96 -250z" />
<glyph unicode="&#xa8;" horiz-adv-x="819" d="M223 1192q0 41 26.5 69.5t72.5 28.5h2q35 0 57 -25.5t22 -62.5q0 -43 -27.5 -70.5t-70.5 -27.5q-35 0 -58.5 23.5t-23.5 64.5zM557 1192q0 39 26.5 68.5t71.5 29.5h2q35 0 57.5 -25.5t22.5 -62.5q0 -43 -26.5 -70.5t-69.5 -27.5q-35 0 -59.5 22.5t-24.5 65.5z" />
<glyph unicode="&#xa9;" horiz-adv-x="1409" d="M94 647.5q0 282.5 179.5 462.5t443.5 180h2q270 0 441 -184t171 -459q0 -283 -177 -463t-437 -180q-266 0 -444.5 180.5t-178.5 463zM203 647q0 -236 145.5 -397.5t372.5 -161.5q221 0 361.5 161t140.5 400q0 231 -137.5 394t-366.5 163h-2q-225 0 -369.5 -160.5 t-144.5 -398.5zM410 643q0 152 102 247t260 95q137 0 191 -57q0 -33 -16.5 -52.5t-47.5 -7.5q-61 27 -137 27q-90 0 -160 -62.5t-70 -177.5q0 -117 68 -183t195 -66q92 0 157 30l2 -4q-4 -59 -36 -86q-49 -35 -160 -35q-158 0 -253 91t-95 241z" />
<glyph unicode="&#xaa;" horiz-adv-x="718" d="M84 748q0 174 107.5 298.5t281.5 124.5q27 0 199 -26q-33 -125 -62 -389q-15 -111 -14 -161v-11q-55 -20 -113 -21q-16 0 -16 43q0 21 4 53q4 45 14 95q-55 -94 -132 -142.5t-142 -48.5h-2q-53 0 -89 48.5t-36 136.5zM225 768q0 -90 51 -90h3q63 0 139 90t98 221l7 43 q5 31 5 37q-27 10 -77 10q-104 0 -165 -94t-61 -217z" />
<glyph unicode="&#xab;" horiz-adv-x="1169" d="M88 479q205 176 338 381q59 -35 59 -75q0 -34 -86 -150q-88 -119 -141 -178q37 -57 98.5 -174t63.5 -150q2 -25 -21.5 -47.5t-48.5 -28.5q-90 184 -250 371q-12 20 -12 51zM465 479q174 145 354 404q23 -8 44.5 -30t21.5 -42q0 -40 -87 -156q-89 -119 -159 -198 q47 -68 111.5 -187.5t66.5 -162.5q2 -25 -24.5 -47.5t-51.5 -28.5q-94 207 -262 395q-14 22 -14 53z" />
<glyph unicode="&#xac;" horiz-adv-x="1175" d="M117 623q2 123 61 122h838l18 -20v-506q0 -55 -84 -59l-51 -4v467h-782z" />
<glyph unicode="&#xad;" horiz-adv-x="569" d="M43 391q8 49 29.5 87t40.5 42q309 39 385 58l4 -7q-6 -41 -34 -85t-69 -54q-55 -16 -174 -31.5t-178 -15.5z" />
<glyph unicode="&#xae;" horiz-adv-x="481" d="M100 1096q0 92 57.5 153.5t151.5 61.5h2q92 0 149.5 -61.5t57.5 -153.5q0 -90 -58.5 -150.5t-152.5 -60.5q-92 0 -149.5 60.5t-57.5 150.5zM156 1097.5q0 -73.5 42 -120.5t111 -47q66 0 110 47t44 121q0 72 -43 121t-113 49h-2q-66 0 -107.5 -48.5t-41.5 -122zM231 991 v211q61 6 72 6q88 0 88 -65q0 -39 -41 -56q6 -6 27.5 -42.5t32.5 -47.5l-2 -4q-16 -4 -33 -4q-20 0 -35 21l-25 47q-12 20 -34 18v-65q0 -18 -17 -19h-33zM281 1104q27 0 36 2q23 10 23 35q0 33 -37 33q-16 0 -22 -3v-67z" />
<glyph unicode="&#xaf;" horiz-adv-x="819" d="M266 1141q0 23 12.5 55.5t20.5 38.5h387q20 0 21 -18q0 -23 -13.5 -56t-25.5 -47h-379q-23 0 -23 27z" />
<glyph unicode="&#xb0;" horiz-adv-x="569" d="M117 977q2 109 69.5 179.5t175.5 70.5h3q90 0 143 -57.5t55 -149.5q0 -106 -67.5 -175t-178.5 -69q-84 0 -142 53.5t-58 147.5zM229 983q0 -51 28 -83t71 -32q57 0 90 41t33 105q0 51 -25 86t-74 35h-2q-57 0 -89 -44.5t-32 -107.5z" />
<glyph unicode="&#xb1;" horiz-adv-x="1175" d="M117 629q4 123 65 123h326v217q0 80 -6 133l88 12q7 1 13 1q24 0 31 -13q9 -16 9 -60v-290h391q-2 -63 -15 -93t-52 -30h-324v-346q0 -55 -78 -60l-57 -4v410h-391zM119 0q4 123 65 123h852q-2 -63 -15 -93t-52 -30h-850z" />
<glyph unicode="&#xb2;" horiz-adv-x="602" d="M100 893l16 31q11 23 15 32q4 4 42 31t52 38l51 41q37 30 55 48l45 48q28 30 41 53.5t23.5 52t10.5 55.5q0 49 -30 76.5t-77 27.5q-98 0 -180 -69h-4q-4 27 5 60.5t23 45.5q84 72 199 72q90 0 147.5 -52t57.5 -141q0 -55 -24.5 -106t-77 -102.5t-80 -74t-88.5 -65.5 q-10 -8 -17 -12q48 -3 124 -3t179 3q-23 -82 -55 -96q-41 -12 -191 -13q-180 0 -260 13z" />
<glyph unicode="&#xb3;" horiz-adv-x="602" d="M106 958l3 3q86 -43 170 -43q70 0 113.5 31.5t43.5 94.5q0 47 -38 76t-99 29q-31 0 -76 -8l-4 6q20 57 37 72q174 35 174 137q0 37 -24.5 57.5t-65.5 20.5q-86 0 -158 -66q-8 4 -8 19q-4 20 2 45.5t19 35.5q74 68 188 68q78 0 131 -41t53 -111q0 -61 -33.5 -98 t-101.5 -69q150 -43 150 -166q0 -113 -83 -170.5t-200 -57.5q-125 0 -170 45q-10 12 -17.5 42t-5.5 48z" />
<glyph unicode="&#xb4;" horiz-adv-x="819" d="M385 1061q-8 6 -8 18q0 14 10 37q119 279 164 279q57 0 104 -47q7 -7 7 -16q0 -11 -13 -25q-66 -74 -211 -279q-14 4 -53 33z" />
<glyph unicode="&#xb5;" horiz-adv-x="1019" d="M0 -348l160 948q25 145 39 285q16 8 71.5 21.5t75.5 13.5q16 0 16 -31q0 -15 -4 -39l-92 -563q-5 -35 -5 -63q0 -114 81 -113q45 0 100.5 34.5t115.5 108.5t115.5 215t84.5 328q8 51 16 69.5t27 28.5q61 25 120 25h17q-61 -244 -107 -650q-17 -164 -16 -248v-18 q-61 -29 -143 -29q-6 0 -8 34q-1 10 -1 23q0 32 4 82q5 71 15 162l-4 3q-160 -303 -375 -304q-63 0 -96 48l-64 -474q-59 0 -94 17q-37 10 -46 28q-6 11 -5 30q0 12 2 28z" />
<glyph unicode="&#xb6;" horiz-adv-x="968" d="M76 -150q0 43 37 76h6q72 -78 186 -78q113 0 172.5 98.5t91.5 309.5l17 94l-76 -18q-31 -10 -76 -10q-117 0 -212 94q-93 92 -93 245q0 193 122 315q120 120 294 120h207h219l2 -6q-4 -23 -20.5 -51.5t-30.5 -37.5l-123 -10l-90 -686q-39 -285 -134.5 -425t-277.5 -140 q-100 0 -159.5 36.5t-61.5 73.5z" />
<glyph unicode="&#xb7;" horiz-adv-x="356" d="M61 449q0 55 31 89.5t84 34.5h2q45 0 69.5 -29.5t24.5 -74.5q0 -53 -31.5 -87t-82.5 -34q-43 0 -70 28t-27 73z" />
<glyph unicode="&#xb8;" horiz-adv-x="819" d="M193 -399.5q0 16.5 20 22.5q156 31 156 103q0 39 -45 59q-38 17 -88 17q-10 0 -21 -1l2 27l143 180h115l-88 -115q121 -41 121 -147q0 -95 -84 -147q-86 -53 -188 -62q-16 4 -29.5 25.5t-13.5 38z" />
<glyph unicode="&#xb9;" horiz-adv-x="602" d="M190 1362q8 47 41 80q203 47 281 94l6 -4l-82 -623q-2 -33 -45 -35l-98 -8q27 139 76 525q-88 -29 -176 -33z" />
<glyph unicode="&#xba;" horiz-adv-x="659" d="M94 805q0 150 90 258t236 108h2q102 0 161.5 -68.5t59.5 -170.5q0 -168 -88 -268.5t-231 -100.5q-109 0 -169.5 64.5t-60.5 177.5zM233 803q0 -147 103 -148q66 0 117 78t51 203q0 57 -22.5 100t-73.5 43h-2q-76 0 -124.5 -86t-48.5 -190z" />
<glyph unicode="&#xbb;" horiz-adv-x="1169" d="M260 104q0 40 87 155q89 118 159 198q-47 66 -111.5 186.5t-66.5 163.5q-2 25 24.5 47.5t53.5 28.5q94 -213 260 -396q14 -23 14 -53q-178 -145 -354 -403q-23 8 -43 29q-23 24 -23 44zM659 129q0 34 85 149q87 118 143 179q-37 55 -98.5 174t-63.5 149q-2 25 21.5 47.5 t46.5 28.5q88 -176 251 -371q12 -20 13 -51q-203 -176 -340 -381q-58 36 -58 76z" />
<glyph unicode="&#xbc;" horiz-adv-x="1400" d="M154 1059q6 43 39 80q209 49 284 94l6 -4l-82 -623q-2 -33 -45 -35l-98 -8q31 166 74 522q-88 -29 -176 -32zM164 8l897 1262q11 14 22 14t23 -12q35 -25 41 -58l-897 -1255q-15 -21 -28 -21q-9 0 -17 9q-37 26 -41 61zM859 444q112 129 173 185q25 20 75 38.5t93 20.5 l14 -12q-203 -184 -387 -430q86 -8 189 -8l22 143q14 10 55.5 24.5t61.5 16.5l12 -2l-24 -178q45 0 94 6l2 -6q-10 -37 -43 -74q-12 -4 -66 -12q-6 -37 -18 -152q-37 -6 -76 -13t-49 -7l-10 12q14 72 24 156q-199 0 -288 14q-6 4 -18 28q-10 20 -9 28q0 21 26.5 57t82.5 96z " />
<glyph unicode="&#xbd;" horiz-adv-x="1400" d="M139 1059q12 47 41 80q66 14 160 44.5t125 49.5l6 -6l-82 -621q-2 -33 -45 -35l-98 -8q18 102 73 520q-90 -25 -176 -28zM147 6l900 1264q11 14 22 14t23 -12q35 -25 41 -58l-900 -1257q-13 -19 -26 -19q-9 0 -17 9q-37 28 -43 59zM750 12q12 29 30 64l37 26q37 27 46 34 l44 35q35 28 49 42l43 42q29 28 41.5 47.5l29.5 44t23.5 49t6.5 46.5q0 49 -30 77t-77 28q-94 0 -180 -68l-2 2q-4 25 5 58.5t24 46.5q80 70 196 69h2q90 0 146.5 -52t56.5 -140q0 -25 -6 -49.5t-14.5 -45t-24.5 -45t-27.5 -40t-34.5 -37.5l-36 -34q-12 -11 -40 -33l-37 -28 l-36 -27q-27 -19 -31 -22q53 -4 129 -4t174 4q-23 -82 -55 -96q-39 -12 -190 -12q-180 0 -260 12z" />
<glyph unicode="&#xbe;" horiz-adv-x="1400" d="M90 655l4 4q80 -45 172 -45q70 0 114 32t44 95q0 47 -38 76t-99 29q-31 0 -76 -8l-2 6q12 51 35 71q174 37 174 138q0 78 -90 77q-82 0 -156 -63q-8 2 -12 18.5t4 43t20 36.5q74 68 189 68h2q76 0 128 -41t52 -109q0 -63 -35 -101t-100 -69q150 -43 149 -165 q0 -113 -83 -170.5t-199 -57.5q-131 0 -170 47q-10 8 -19.5 38t-7.5 50zM238 8l901 1262q10 13 21 13t24 -11q33 -27 39 -58l-899 -1255q-15 -20 -29 -20q-8 0 -16 8q-35 26 -41 61zM896 446q114 129 173 181q25 20 74 38.5t92 20.5l14 -12q-207 -188 -387 -428 q86 -8 189 -8l22 143q14 10 56 24.5t63 16.5l10 -2l-24 -178q43 0 92 6l4 -6q-10 -35 -43 -74q-12 -4 -66 -12q-6 -37 -18 -152q-29 -4 -57 -9l-46 -8q-16 -3 -24 -3l-8 10q12 68 24 158q-199 0 -288 14q-6 4 -19 28q-11 20 -10 29q0 21 27 57.5t85 97t65 68.5z" />
<glyph unicode="&#xbf;" horiz-adv-x="622" d="M-25 -131q0 84 53.5 144.5t155.5 123.5q84 53 121 89t37 83q0 51 -50 83q-44 28 -112 28h-18q-12 2 -19 6q0 35 21 61q18 35 92 35q98 0 171 -55t73 -162q0 -141 -201 -258q-84 -51 -123 -91t-39 -89q0 -41 33 -68.5t90 -27.5q63 0 148 47q16 9 27 9q26 0 34 -44 q6 -16 2 -43q-102 -90 -250 -90h-2q-109 0 -176.5 61.5t-67.5 157.5zM250 797q0 51 32.5 86t84.5 35q45 0 71.5 -30t26.5 -73q0 -53 -31 -87t-84 -34h-2q-47 0 -72.5 29t-25.5 74z" />
<glyph unicode="&#xc0;" horiz-adv-x="1228" d="M-31 10v4q612 1120 654 1205l-13 38q72 29 129 29q18 0 29 -29l233 -829q88 -311 125 -416v-4q-70 -20 -139 -20q-18 0 -27.5 11t-19.5 48l-109 373h-485l-215 -406q-14 -27 -45 -26q-54 -1 -117 22zM403 535h406l-141 516zM424 1538q10 31 36.5 59.5t49.5 28.5h2 q27 0 127 -61.5t158 -110.5q17 -15 17 -31q0 -11 -7 -22q-12 -20 -31 -39q-225 111 -340 147q-15 6 -14 18q0 5 2 11z" />
<glyph unicode="&#xc1;" horiz-adv-x="1228" d="M-31 10v4q612 1120 654 1205l-13 38q72 29 129 29q18 0 29 -29l233 -829q88 -311 125 -416v-4q-70 -20 -139 -20q-18 0 -27.5 11t-19.5 48l-109 373h-485l-215 -406q-14 -27 -45 -26q-54 -1 -117 22zM403 535h406l-141 516zM582 1403q-5 10 -5 19q0 17 17 30 q61 47 161.5 102.5t137.5 57.5q27 -6 50.5 -37t33.5 -57q2 -5 2 -9q0 -16 -27 -26q-154 -45 -340 -121q-18 14 -30 41z" />
<glyph unicode="&#xc2;" horiz-adv-x="1228" d="M-31 10v4q612 1120 654 1205l-13 38q72 29 129 29q18 0 29 -29l233 -829q88 -311 125 -416v-4q-70 -20 -139 -20q-18 0 -27.5 11t-19.5 48l-109 373h-485l-215 -406q-14 -27 -45 -26q-54 -1 -117 22zM403 535h406l-141 516zM438 1399q125 94 224 196q18 18 34 23 q20 6 54 6q78 -113 196 -219q-12 -16 -35.5 -32.5t-40.5 -16.5q-27 0 -41 12q-25 18 -122 117q-90 -80 -148 -115q-29 -14 -45 -14h-2q-20 0 -44 14.5t-30 28.5z" />
<glyph unicode="&#xc3;" horiz-adv-x="1228" d="M-31 10v4q612 1120 654 1205l-13 38q72 29 129 29q18 0 29 -29l233 -829q88 -311 125 -416v-4q-70 -20 -139 -20q-18 0 -27.5 11t-19.5 48l-109 373h-485l-215 -406q-14 -27 -45 -26q-54 -1 -117 22zM403 535h406l-141 516zM473 1393q12 219 148 219h2q63 0 122 -74 q45 -53 62 -53q31 0 45 104q6 23 20 23q37 0 72 -31q-12 -215 -133 -215q-25 0 -48.5 13.5t-36.5 26.5l-42 44q-41 47 -63 47q-37 0 -54 -100q-4 -20 -16 -21q-35 1 -78 17z" />
<glyph unicode="&#xc4;" horiz-adv-x="1228" d="M-31 10v4q612 1120 654 1205l-13 38q72 29 129 29q18 0 29 -29l233 -829q88 -311 125 -416v-4q-70 -20 -139 -20q-18 0 -27.5 11t-19.5 48l-109 373h-485l-215 -406q-14 -27 -45 -26q-54 -1 -117 22zM403 535h406l-141 516zM459 1529q29 30 73 30h3q37 0 60.5 -28 t23.5 -67q-2 -45 -30 -73.5t-71 -28.5q-39 0 -65 24q-25 23 -25 64q0 47 31 79zM810 1528q28 31 73 31h2q39 0 62 -27q22 -24 22 -59v-7q-2 -47 -30 -75.5t-71 -28.5q-37 0 -63 26q-25 24 -25 62q0 45 30 78z" />
<glyph unicode="&#xc5;" horiz-adv-x="1228" d="M-31 10v4q612 1120 654 1205l-13 38q72 29 129 29q18 0 29 -29l233 -829q88 -311 125 -416v-4q-70 -20 -139 -20q-18 0 -27.5 11t-19.5 48l-109 373h-485l-215 -406q-14 -27 -45 -26q-54 -1 -117 22zM403 535h406l-141 516zM535 1526q0 76 53 129t139 53h2q74 0 118 -48 t44 -122q0 -80 -55.5 -131t-139.5 -51q-70 0 -115.5 45t-45.5 125zM633 1528q0 -86 76 -86q39 0 61.5 27.5t22.5 64.5q0 90 -78 90h-2q-37 0 -58.5 -30.5t-21.5 -65.5z" />
<glyph unicode="&#xc6;" horiz-adv-x="1591" d="M-31 4v8l372 545q343 504 447 645q6 8 31 58q104 16 178 20h562q-6 -70 -50 -102q-29 -16 -141 -17h-250l-67 -536h434q-20 -78 -47 -98.5t-82 -20.5h-320l-45 -383q45 -14 246 -14q186 0 285 8l2 -6q-14 -57 -88 -111q-47 -10 -238 -10q-266 0 -360 20l-23 37l62 459 q-322 0 -416 -23q-252 -389 -322 -481q-14 -20 -47 -20q-74 -1 -123 22zM539 606q90 18 352 19l72 542h-43q-260 -371 -381 -561z" />
<glyph unicode="&#xc7;" horiz-adv-x="1087" d="M84 557q0 127 44 255t130 241.5t234.5 185.5t334.5 72q82 0 161 -19.5t114 -54.5q-8 -87 -55 -87q-13 0 -29 7q-90 35 -191 35q-240 0 -401.5 -176t-161.5 -455q0 -205 109.5 -337t312.5 -132q168 0 303 70l6 -4q-4 -82 -41 -117q-94 -59 -266 -70l-59 -77 q121 -41 121 -146q0 -96 -83 -148.5t-188 -62.5q-37 12 -43 64q0 14 23 22q156 33 155 105q0 37 -46 57q-42 19 -98 19q-6 0 -11 -1l2 25l114 145q-236 20 -363.5 177t-127.5 407z" />
<glyph unicode="&#xc8;" horiz-adv-x="878" d="M90 45l135 946q14 104 33 262q74 20 145 27h451q-6 -66 -47 -100q-31 -14 -152 -15h-243l-62 -450h430q-16 -74 -47 -94.5t-98 -20.5h-303l-66 -483q55 -14 248 -15q205 0 285 11l2 -4q-6 -35 -32 -67t-56 -44q-41 -10 -238 -10q-258 0 -360 20zM330 1538 q10 31 36.5 59.5t49.5 28.5h2q27 0 127 -61.5t157 -110.5q17 -15 18 -31q0 -11 -7 -22q-12 -20 -31 -39q-225 111 -340 147q-15 6 -15 18q1 5 3 11z" />
<glyph unicode="&#xc9;" horiz-adv-x="878" d="M90 45l135 946q14 104 33 262q74 20 145 27h451q-6 -66 -47 -100q-31 -14 -152 -15h-243l-62 -450h430q-16 -74 -47 -94.5t-98 -20.5h-303l-66 -483q55 -14 248 -15q205 0 285 11l2 -4q-6 -35 -32 -67t-56 -44q-41 -10 -238 -10q-258 0 -360 20zM446 1403q-5 10 -5 19 q0 17 18 30q61 47 161.5 102.5t137.5 57.5q27 -6 50 -37t34 -57q2 -5 1 -9q0 -16 -26 -26q-154 -45 -340 -121q-19 14 -31 41z" />
<glyph unicode="&#xca;" horiz-adv-x="878" d="M90 45l135 946q14 104 33 262q74 20 145 27h451q-6 -66 -47 -100q-31 -14 -152 -15h-243l-62 -450h430q-16 -74 -47 -94.5t-98 -20.5h-303l-66 -483q55 -14 248 -15q205 0 285 11l2 -4q-6 -35 -32 -67t-56 -44q-41 -10 -238 -10q-258 0 -360 20zM313 1405q125 94 224 197 q18 18 34 22q20 6 54 6q78 -113 196 -219q-12 -16 -35.5 -32.5t-40.5 -16.5q-25 0 -40 12q-25 18 -123 117q-90 -80 -148 -115q-29 -14 -45 -14h-2q-20 0 -44 14.5t-30 28.5z" />
<glyph unicode="&#xcb;" horiz-adv-x="878" d="M90 45l135 946q14 104 33 262q74 20 145 27h451q-6 -66 -47 -100q-31 -14 -152 -15h-243l-62 -450h430q-16 -74 -47 -94.5t-98 -20.5h-303l-66 -483q55 -14 248 -15q205 0 285 11l2 -4q-6 -35 -32 -67t-56 -44q-41 -10 -238 -10q-258 0 -360 20zM338 1539q29 30 74 30h2 q37 0 60.5 -28t23.5 -66q-2 -45 -30 -74t-71 -29q-39 0 -65 25q-25 23 -25 63q0 47 31 79zM689 1538q28 31 73 31h2q39 0 62 -27q22 -24 22 -59v-6q-2 -47 -29.5 -76t-70.5 -29q-37 0 -64 26q-25 24 -25 62q0 45 30 78z" />
<glyph unicode="&#xcc;" horiz-adv-x="481" d="M86 25l135 981q14 96 33 266q68 14 139 14q20 0 24 -20q1 -5 0 -13q0 -26 -7 -86l-125 -913l-23 -168l-10 -86q-39 -12 -139 -12q-28 0 -28 26q0 5 1 11zM100 1538q10 31 37 59.5t49 28.5h2q27 0 127.5 -61.5t157.5 -110.5q17 -15 18 -31q0 -11 -8 -22q-12 -20 -30 -39 q-225 111 -340 147q-15 6 -15 18q0 5 2 11z" />
<glyph unicode="&#xcd;" horiz-adv-x="481" d="M86 25l135 981q14 96 33 266q68 14 139 14q20 0 24 -20q1 -5 0 -13q0 -26 -7 -86l-125 -913l-23 -168l-10 -86q-39 -12 -139 -12q-28 0 -28 26q0 5 1 11zM223 1403q-5 10 -5 19q0 17 18 30q61 47 161.5 102.5t137.5 57.5q27 -6 50 -37t33 -57q2 -5 2 -9q0 -16 -26 -26 q-154 -45 -340 -121q-19 14 -31 41z" />
<glyph unicode="&#xce;" horiz-adv-x="481" d="M86 25l135 981q14 96 33 266q68 14 139 14q20 0 24 -20q1 -5 0 -13q0 -26 -7 -86l-125 -913l-23 -168l-10 -86q-39 -12 -139 -12q-28 0 -28 26q0 5 1 11zM86 1405q125 94 223 197q18 18 35 22q20 6 53 6q78 -113 197 -219q-12 -16 -35.5 -32.5t-40.5 -16.5q-27 0 -41 12 q-25 18 -123 117q-90 -80 -147 -115q-29 -14 -45 -14h-2q-20 0 -44 14.5t-30 28.5z" />
<glyph unicode="&#xcf;" horiz-adv-x="481" d="M113 1529q29 30 73 30h2q37 0 60.5 -28t23.5 -67q-2 -45 -29.5 -73.5t-70.5 -28.5q-39 0 -66 24q-25 23 -24 64q0 47 31 79zM86 25l135 981q14 96 33 266q68 14 139 14q20 0 24 -20q1 -5 0 -13q0 -26 -7 -86l-125 -913l-23 -168l-10 -86q-39 -12 -139 -12q-28 0 -28 26 q0 5 1 11zM464 1528q28 31 73 31h2q39 0 62 -27q22 -24 22 -59v-7q-2 -47 -30 -75.5t-71 -28.5q-37 0 -63 26q-25 24 -25 62q0 45 30 78z" />
<glyph unicode="&#xd0;" horiz-adv-x="1296" d="M29 600q16 70 42.5 92.5t69.5 22.5h70q12 86 25 159q31 227 40 283q-45 -4 -90 -12l-2 2q0 61 39 100q129 43 338 43q326 0 496 -149q168 -148 168 -452q0 -333 -212 -522q-210 -187 -530 -187q-186 0 -372 53l84 567h-166zM295 117q70 -25 190 -25q240 0 401 150.5 t161 433.5q0 502 -504 502q-51 0 -101 -7q-23 -139 -65 -456h332q-16 -74 -44 -94.5t-79 -20.5h-226z" />
<glyph unicode="&#xd1;" horiz-adv-x="1280" d="M78 -12q61 389 170 1149q2 13 2 24q0 23 -8 39l-35 64v8q76 14 145 14q23 0 45.5 -32.5t78.5 -133.5l146 -259l144 -257q150 -262 190 -354q16 184 48 405l75 574q6 45 45 51q63 6 107 6q-127 -846 -178 -1286q-47 -27 -95 -27q-20 0 -38 35l-100 174l-149 263l-141 255 l-172 334l-51 -438l-71 -547q-4 -31 -14.5 -41t-31.5 -14q-38 -6 -112 -6zM532 1389q12 219 148 219h2q63 0 123 -74q45 -53 61 -53q31 0 45 104q6 23 21 23q37 0 72 -31q-12 -215 -134 -215q-25 0 -48 13.5t-37 26.5l-42 44q-41 47 -63 47q-37 0 -53 -100q-4 -20 -17 -21 q-35 1 -78 17z" />
<glyph unicode="&#xd2;" horiz-adv-x="1300" d="M86 535q0 197 73.5 370.5t226.5 289.5t355 116h2q244 0 370 -161t126 -409q0 -143 -39 -276t-114.5 -246t-205.5 -181.5t-294 -68.5q-238 0 -369 153t-131 413zM266 526q0 -190 85 -317t251 -127q150 0 256.5 103.5t153.5 250t47 312.5q0 88 -16.5 163.5t-53.5 142 t-104.5 105.5t-161.5 39h-2q-195 0 -325 -196.5t-130 -475.5zM520 1561q10 31 37 59.5t49 28.5h2q27 0 127.5 -61.5t157.5 -110.5q17 -15 17 -32q0 -11 -7 -22q-12 -20 -31 -39q-225 111 -340 148q-15 6 -14 18q0 5 2 11z" />
<glyph unicode="&#xd3;" horiz-adv-x="1300" d="M86 535q0 197 73.5 370.5t226.5 289.5t355 116h2q244 0 370 -161t126 -409q0 -143 -39 -276t-114.5 -246t-205.5 -181.5t-294 -68.5q-238 0 -369 153t-131 413zM266 526q0 -190 85 -317t251 -127q150 0 256.5 103.5t153.5 250t47 312.5q0 88 -16.5 163.5t-53.5 142 t-104.5 105.5t-161.5 39h-2q-195 0 -325 -196.5t-130 -475.5zM612 1432q-5 10 -5 19q0 17 18 30q61 47 161.5 102t137.5 57q27 -6 50 -36.5t34 -57.5q2 -5 1 -8q0 -16 -26 -27q-154 -45 -340 -120q-19 14 -31 41z" />
<glyph unicode="&#xd4;" horiz-adv-x="1300" d="M86 535q0 197 73.5 370.5t226.5 289.5t355 116h2q244 0 370 -161t126 -409q0 -143 -39 -276t-114.5 -246t-205.5 -181.5t-294 -68.5q-238 0 -369 153t-131 413zM266 526q0 -190 85 -317t251 -127q150 0 256.5 103.5t153.5 250t47 312.5q0 88 -16.5 163.5t-53.5 142 t-104.5 105.5t-161.5 39h-2q-195 0 -325 -196.5t-130 -475.5zM492 1436q125 94 223 196q18 18 35 23q20 6 53 6q78 -113 196 -219q-12 -16 -35.5 -32.5t-39.5 -16.5q-27 0 -41 12q-25 18 -123 117q-90 -80 -148 -115q-29 -14 -45 -14h-2q-20 0 -43.5 14.5t-29.5 28.5z" />
<glyph unicode="&#xd5;" horiz-adv-x="1300" d="M86 535q0 197 73.5 370.5t226.5 289.5t355 116h2q244 0 370 -161t126 -409q0 -143 -39 -276t-114.5 -246t-205.5 -181.5t-294 -68.5q-238 0 -369 153t-131 413zM266 526q0 -190 85 -317t251 -127q150 0 256.5 103.5t153.5 250t47 312.5q0 88 -16.5 163.5t-53.5 142 t-104.5 105.5t-161.5 39h-2q-195 0 -325 -196.5t-130 -475.5zM524 1423q12 219 148 219h2q63 0 123 -73q45 -53 61 -53q31 0 45 104q6 23 21 22q37 0 71 -30q-12 -215 -133 -215q-25 0 -48 13t-37 27l-42 44q-41 47 -63 47q-37 0 -54 -101q-4 -20 -16 -20q-35 0 -78 16z" />
<glyph unicode="&#xd6;" horiz-adv-x="1300" d="M86 535q0 197 73.5 370.5t226.5 289.5t355 116h2q244 0 370 -161t126 -409q0 -143 -39 -276t-114.5 -246t-205.5 -181.5t-294 -68.5q-238 0 -369 153t-131 413zM266 526q0 -190 85 -317t251 -127q150 0 256.5 103.5t153.5 250t47 312.5q0 88 -16.5 163.5t-53.5 142 t-104.5 105.5t-161.5 39h-2q-195 0 -325 -196.5t-130 -475.5zM516 1560q29 30 74 29h2q37 0 60.5 -27.5t23.5 -66.5q-2 -45 -30 -73.5t-71 -28.5q-39 0 -65 24q-25 23 -25 64q0 47 31 79zM867 1559q28 31 73 30h2q39 0 63 -26q22 -24 21 -60v-6q-2 -47 -29.5 -75.5 t-70.5 -28.5q-37 0 -64 25q-25 24 -25 63q0 45 30 78z" />
<glyph unicode="&#xd7;" horiz-adv-x="1175" d="M170 113q-5 12 -5 24q0 21 15 41l312 318l-318 323q-11 11 -11 27.5t11 38.5q29 41 68 55l342 -350l309 321q20 22 40 22q14 0 28 -9q45 -27 57 -72l-344 -354l313 -324q19 -17 20 -36q0 -13 -10 -27q-29 -41 -73 -64l-344 359l-338 -359q-43 13 -72 66z" />
<glyph unicode="&#xd8;" horiz-adv-x="1298" d="M88 -23l117 162q-117 145 -117 410q0 315 182.5 538.5t470.5 223.5q176 0 273 -78l76 102q23 30 40 30q8 0 15 -5q41 -41 55 -68l-98 -135q70 -74 103.5 -190.5t33.5 -237.5q0 -201 -72.5 -371t-224 -279.5t-356.5 -109.5q-188 0 -297 94l-105 -139q-16 -20 -30 -20 q-11 0 -21 10q-20 18 -45 63zM260 559q0 -184 53 -280l619 845q-76 76 -209 76q-195 0 -329 -189.5t-134 -451.5zM373 180q76 -100 225.5 -100t259 103.5t158.5 252t49 316.5q0 178 -64 278z" />
<glyph unicode="&#xd9;" horiz-adv-x="1290" d="M158 645l47 356l22 162l15 107q55 16 135 16q18 0 21 -22q1 -5 1 -14q0 -27 -8 -87l-69 -534q-11 -87 -12 -160q0 -375 300 -375q82 0 140.5 23.5t113 87t92 185.5t62.5 306l72 525q8 57 38 59q57 6 117 6q-6 -39 -13 -92l-20 -143l-22 -162l-37 -260q-27 -193 -79 -326 t-129 -203.5t-162 -99.5t-193 -29q-254 0 -366 161q-80 115 -79 326q0 86 13 187zM522 1538q10 31 37 59.5t49 28.5h2q27 0 127.5 -61.5t157.5 -110.5q17 -15 17 -31q0 -11 -7 -22q-12 -20 -31 -39q-225 111 -339 147q-15 6 -15 18q0 5 2 11z" />
<glyph unicode="&#xda;" horiz-adv-x="1290" d="M158 645l47 356l22 162l15 107q55 16 135 16q18 0 21 -22q1 -5 1 -14q0 -27 -8 -87l-69 -534q-11 -87 -12 -160q0 -375 300 -375q82 0 140.5 23.5t113 87t92 185.5t62.5 306l72 525q8 57 38 59q57 6 117 6q-6 -39 -13 -92l-20 -143l-22 -162l-37 -260q-27 -193 -79 -326 t-129 -203.5t-162 -99.5t-193 -29q-254 0 -366 161q-80 115 -79 326q0 86 13 187zM606 1403q-5 10 -5 19q0 17 17 30q61 47 162 102.5t138 57.5q27 -6 50 -37t33 -57q2 -5 2 -9q0 -16 -26 -26q-154 -45 -340 -121q-19 14 -31 41z" />
<glyph unicode="&#xdb;" horiz-adv-x="1290" d="M158 645l47 356l22 162l15 107q55 16 135 16q18 0 21 -22q1 -5 1 -14q0 -27 -8 -87l-69 -534q-11 -87 -12 -160q0 -375 300 -375q82 0 140.5 23.5t113 87t92 185.5t62.5 306l72 525q8 57 38 59q57 6 117 6q-6 -39 -13 -92l-20 -143l-22 -162l-37 -260q-27 -193 -79 -326 t-129 -203.5t-162 -99.5t-193 -29q-254 0 -366 161q-80 115 -79 326q0 86 13 187zM500 1405q125 94 223 197q18 18 35 22q20 6 53 6q78 -113 197 -219q-12 -16 -36 -32.5t-40 -16.5q-27 0 -41 12q-25 18 -123 117q-90 -80 -147 -115q-29 -14 -46 -14h-2q-20 0 -43.5 14.5 t-29.5 28.5z" />
<glyph unicode="&#xdc;" horiz-adv-x="1290" d="M158 645l47 356l22 162l15 107q55 16 135 16q18 0 21 -22q1 -5 1 -14q0 -27 -8 -87l-69 -534q-11 -87 -12 -160q0 -375 300 -375q82 0 140.5 23.5t113 87t92 185.5t62.5 306l72 525q8 57 38 59q57 6 117 6q-6 -39 -13 -92l-20 -143l-22 -162l-37 -260q-27 -193 -79 -326 t-129 -203.5t-162 -99.5t-193 -29q-254 0 -366 161q-80 115 -79 326q0 86 13 187zM526 1533q29 30 74 30h2q37 0 60.5 -28t23.5 -67q-2 -45 -29.5 -73.5t-70.5 -28.5q-39 0 -66 25q-25 23 -25 63q0 47 31 79zM878 1532q28 31 72 31h2q39 0 63 -27q22 -24 21 -59v-7 q-2 -47 -29.5 -75.5t-70.5 -28.5q-37 0 -64 26q-25 24 -24 62q0 45 30 78z" />
<glyph unicode="&#xdd;" horiz-adv-x="1103" d="M127 1260v6q86 20 143 20q35 0 70 -78q29 -63 112 -230t126 -261q53 63 231 301.5t203 267.5q59 -2 110 -18q17 -7 18 -22q0 -16 -22 -42q-119 -137 -469 -596q-18 -27 -24 -71l-35 -283q-16 -141 -27 -254q-55 -12 -141 -12q-18 0 -23.5 6t-3.5 31l60 479q4 33 3 60 q0 18 -1 34q-8 45 -45 117q-174 352 -285 545zM522 1403q-5 10 -5 19q0 17 18 30q61 47 161.5 102.5t137.5 57.5q27 -6 50 -37t34 -57q2 -5 1 -9q0 -16 -26 -26q-154 -45 -340 -121q-19 14 -31 41z" />
<glyph unicode="&#xde;" horiz-adv-x="966" d="M88 27l133 979q0 6 13.5 106t19.5 160q57 14 135 14q23 0 27 -21.5t-4 -72.5l-25 -172q10 0 30.5 3t42 4t44.5 1q193 0 296 -97t103 -267q0 -111 -42 -196t-106.5 -130t-131 -67.5t-129.5 -22.5q-78 0 -105 18q-45 33 -39 99q45 -10 88 -11q45 0 91 15.5t93.5 47.5t77 95 t29.5 147q0 125 -69.5 192t-192.5 64q-55 0 -94 -8l-86 -653q-33 -246 -33 -254q-74 -12 -139 -12q-33 0 -27 39z" />
<glyph unicode="&#xdf;" horiz-adv-x="1032" d="M-265 -341q0 35 11 46q53 -29 123 -29q104 0 154.5 111t87.5 406l73 571h-149q0 31 19.5 68.5t45.5 41.5h99q90 528 471 529q139 0 217 -80t78 -201q0 -72 -21 -112q-264 -129 -264 -293q0 -41 31.5 -84t101.5 -115q113 -115 113 -223q0 -156 -102.5 -238t-241.5 -82 q-63 0 -122 22.5t-77 45.5q-29 18 -29 56t15 59q4 6 16 4q90 -66 199 -66q78 0 129 43t51 119q0 80 -111 191q-131 127 -131 231q0 100 81 196.5t206 170.5q10 31 10 73q0 74 -45 123t-119 49q-141 0 -217 -148.5t-112 -479.5q-33 -276 -78 -596q-74 -512 -365 -512 q-94 0 -127 41q-21 17 -21 62z" />
<glyph unicode="&#xe0;" horiz-adv-x="989" d="M45 250q0 127 52.5 271.5t158.5 248.5q156 150 391 150q78 0 256 -41q-49 -227 -92 -605q-19 -142 -19 -237q0 -17 1 -33q-61 -29 -142 -29q-7 0 -7 55v14q1 69 11 169l8 58q5 42 7 53q-90 -168 -211 -258.5t-238 -90.5q-80 0 -128 69t-48 204v2zM213 262 q0 -70 21.5 -110.5t60.5 -40.5h2q115 0 249 176t175 424q2 8 7 37.5t7 37.5q-49 20 -114 21q-174 0 -281 -135q-127 -170 -127 -410zM430 1323q-7 9 -7 18q0 11 11 21q56 39 99 39h8h2q23 -2 78 -109.5t81 -185.5q3 -12 4 -21q0 -18 -14 -26q-31 -23 -51 -25 q-109 174 -211 289z" />
<glyph unicode="&#xe1;" horiz-adv-x="989" d="M45 250q0 127 52.5 271.5t158.5 248.5q156 150 391 150q78 0 256 -41q-49 -227 -92 -605q-19 -142 -19 -237q0 -17 1 -33q-61 -29 -142 -29q-7 0 -7 55v14q1 69 11 169l8 58q5 42 7 53q-90 -168 -211 -258.5t-238 -90.5q-80 0 -128 69t-48 204v2zM213 262 q0 -70 21.5 -110.5t60.5 -40.5h2q115 0 249 176t175 424q2 8 7 37.5t7 37.5q-49 20 -114 21q-174 0 -281 -135q-127 -170 -127 -410zM541 1061q-8 6 -8 18q0 14 10 37q119 279 164 279q57 0 104 -47q7 -7 7 -16q0 -11 -13 -25q-66 -74 -211 -279q-14 4 -53 33z" />
<glyph unicode="&#xe2;" horiz-adv-x="989" d="M45 250q0 127 52.5 271.5t158.5 248.5q156 150 391 150q78 0 256 -41q-49 -227 -92 -605q-19 -142 -19 -237q0 -17 1 -33q-61 -29 -142 -29q-7 0 -7 55v14q1 69 11 169l8 58q5 42 7 53q-90 -168 -211 -258.5t-238 -90.5q-80 0 -128 69t-48 204v2zM213 262 q0 -70 21.5 -110.5t60.5 -40.5h2q115 0 249 176t175 424q2 8 7 37.5t7 37.5q-49 20 -114 21q-174 0 -281 -135q-127 -170 -127 -410zM369 1065q145 213 188 283q16 27 41 32q45 8 59 9l160 -320q-55 -33 -82 -33q-20 0 -30 21q-47 86 -97 188q-51 -90 -125 -190 q-14 -18 -30 -19h-2q-45 0 -82 29z" />
<glyph unicode="&#xe3;" horiz-adv-x="989" d="M45 250q0 127 52.5 271.5t158.5 248.5q156 150 391 150q78 0 256 -41q-49 -227 -92 -605q-19 -142 -19 -237q0 -17 1 -33q-61 -29 -142 -29q-7 0 -7 55v14q1 69 11 169l8 58q5 42 7 53q-90 -168 -211 -258.5t-238 -90.5q-80 0 -128 69t-48 204v2zM213 262 q0 -70 21.5 -110.5t60.5 -40.5h2q115 0 249 176t175 424q2 8 7 37.5t7 37.5q-49 20 -114 21q-174 0 -281 -135q-127 -170 -127 -410zM377 1108q12 217 145 217h2q63 0 121 -72q43 -51 60 -51q33 0 43 101q6 23 22 22q41 0 72 -31q-10 -215 -131 -215q-25 0 -48.5 13.5 t-34.5 25.5l-42 45q-39 45 -64 45q-31 0 -51 -96q-4 -20 -14 -20q-37 0 -80 16z" />
<glyph unicode="&#xe4;" horiz-adv-x="989" d="M45 250q0 127 52.5 271.5t158.5 248.5q156 150 391 150q78 0 256 -41q-49 -227 -92 -605q-19 -142 -19 -237q0 -17 1 -33q-61 -29 -142 -29q-7 0 -7 55v14q1 69 11 169l8 58q5 42 7 53q-90 -168 -211 -258.5t-238 -90.5q-80 0 -128 69t-48 204v2zM213 262 q0 -70 21.5 -110.5t60.5 -40.5h2q115 0 249 176t175 424q2 8 7 37.5t7 37.5q-49 20 -114 21q-174 0 -281 -135q-127 -170 -127 -410zM346 1192q0 41 26.5 69.5t71.5 28.5h2q35 0 57.5 -25.5t22.5 -62.5q0 -43 -27.5 -70.5t-70.5 -27.5q-35 0 -58.5 23.5t-23.5 64.5z M680 1192q0 39 26.5 68.5t71.5 29.5h2q35 0 57.5 -25.5t22.5 -62.5q0 -43 -26.5 -70.5t-69.5 -27.5q-35 0 -59.5 22.5t-24.5 65.5z" />
<glyph unicode="&#xe5;" horiz-adv-x="989" d="M45 250q0 127 52.5 271.5t158.5 248.5q156 150 391 150q78 0 256 -41q-49 -227 -92 -605q-19 -142 -19 -237q0 -17 1 -33q-61 -29 -142 -29q-7 0 -7 55v14q1 69 11 169l8 58q5 42 7 53q-90 -168 -211 -258.5t-238 -90.5q-80 0 -128 69t-48 204v2zM213 262 q0 -70 21.5 -110.5t60.5 -40.5h2q115 0 249 176t175 424q2 8 7 37.5t7 37.5q-49 20 -114 21q-174 0 -281 -135q-127 -170 -127 -410zM449 1188q0 78 52 130t134 52h2q72 0 117 -46t45 -118q0 -80 -54.5 -130t-136.5 -50q-70 0 -114.5 43t-44.5 119zM547 1194q0 -84 71 -84 q37 0 59.5 26.5t22.5 63.5q0 88 -71 88h-2q-35 0 -57.5 -29.5t-22.5 -64.5z" />
<glyph unicode="&#xe6;" horiz-adv-x="1337" d="M33 192q0 122 65 260q68 142 195 244q219 180 600 187q90 37 174 37q102 0 155.5 -55.5t53.5 -137.5q0 -92 -59.5 -162.5t-149.5 -106.5t-174 -53.5t-158 -19.5q-3 -27 -3 -52q0 -75 27 -140q36 -88 136 -89q166 0 305 152q29 -14 29 -61q0 -41 -29 -74 q-135 -145 -348 -146q-125 0 -192.5 70t-81.5 176h-5q-188 -246 -383 -246q-68 0 -111 52q-46 54 -46 165zM266 111h2q55 0 142.5 69.5t164.5 200.5q12 129 71 240.5t118 150.5q-238 -20 -393 -176q-76 -76 -123 -182q-45 -102 -45 -195q-1 -108 63 -108zM748 494 q379 29 378 227q0 41 -24.5 66.5t-69.5 25.5h-2q-86 0 -166.5 -87t-115.5 -232z" />
<glyph unicode="&#xe7;" horiz-adv-x="780" d="M49 303q0 246 146.5 431.5t375.5 185.5q49 0 97.5 -15.5t66.5 -38.5q-2 -33 -22.5 -62.5t-38.5 -25.5q-61 23 -115 23q-150 0 -246 -138.5t-96 -334.5q0 -221 162 -222q143 0 276 134q25 -14 25 -55.5t-33 -75.5q-88 -90 -223 -121l-70 -95q123 -41 123 -147 q0 -91 -85 -145q-87 -55 -187 -64q-16 4 -29.5 25.5t-13.5 38t20 22.5q156 31 156 103q0 39 -46 59q-38 17 -88 17q-10 0 -20 -1l2 27l119 149q-121 4 -188.5 89t-67.5 237z" />
<glyph unicode="&#xe8;" horiz-adv-x="813" d="M49 311q0 231 134 420t354 189h2q96 0 152.5 -50.5t56.5 -134.5q0 -86 -52.5 -152.5t-135.5 -105.5t-171 -60.5t-174 -25.5q-4 -23 -4 -72q0 -100 42 -157.5t126 -57.5q156 0 295 148q23 -12 22 -55q0 -49 -30 -84q-123 -137 -338 -138q-279 0 -279 336zM227 500 q188 12 282.5 75.5t94.5 149.5q0 39 -25.5 64.5t-68.5 25.5h-2q-100 0 -176 -90t-105 -225zM338 1323q-7 9 -7 18q0 11 11 21q56 39 99 39h8h2q23 -2 78 -109.5t81 -185.5q3 -12 4 -21q0 -18 -14 -26q-31 -23 -51 -25q-109 174 -211 289z" />
<glyph unicode="&#xe9;" horiz-adv-x="813" d="M49 311q0 231 134 420t354 189h2q96 0 152.5 -50.5t56.5 -134.5q0 -86 -52.5 -152.5t-135.5 -105.5t-171 -60.5t-174 -25.5q-4 -23 -4 -72q0 -100 42 -157.5t126 -57.5q156 0 295 148q23 -12 22 -55q0 -49 -30 -84q-123 -137 -338 -138q-279 0 -279 336zM227 500 q188 12 282.5 75.5t94.5 149.5q0 39 -25.5 64.5t-68.5 25.5h-2q-100 0 -176 -90t-105 -225zM440 1061q-8 6 -7 18q0 14 9 37q119 279 164 279q57 0 105 -47q7 -7 7 -16q0 -11 -13 -25q-66 -74 -211 -279q-15 4 -54 33z" />
<glyph unicode="&#xea;" horiz-adv-x="813" d="M49 311q0 231 134 420t354 189h2q96 0 152.5 -50.5t56.5 -134.5q0 -86 -52.5 -152.5t-135.5 -105.5t-171 -60.5t-174 -25.5q-4 -23 -4 -72q0 -100 42 -157.5t126 -57.5q156 0 295 148q23 -12 22 -55q0 -49 -30 -84q-123 -137 -338 -138q-279 0 -279 336zM227 500 q188 12 282.5 75.5t94.5 149.5q0 39 -25.5 64.5t-68.5 25.5h-2q-100 0 -176 -90t-105 -225zM270 1065q145 213 189 283q16 27 41 32q45 8 59 9l160 -320q-55 -33 -82 -33q-20 0 -31 21q-47 86 -96 188q-51 -90 -125 -190q-14 -18 -31 -19h-2q-45 0 -82 29z" />
<glyph unicode="&#xeb;" horiz-adv-x="813" d="M49 311q0 231 134 420t354 189h2q96 0 152.5 -50.5t56.5 -134.5q0 -86 -52.5 -152.5t-135.5 -105.5t-171 -60.5t-174 -25.5q-4 -23 -4 -72q0 -100 42 -157.5t126 -57.5q156 0 295 148q23 -12 22 -55q0 -49 -30 -84q-123 -137 -338 -138q-279 0 -279 336zM227 500 q188 12 282.5 75.5t94.5 149.5q0 39 -25.5 64.5t-68.5 25.5h-2q-100 0 -176 -90t-105 -225zM256 1192q0 41 26.5 69.5t71.5 28.5h2q35 0 57.5 -25.5t22.5 -62.5q0 -43 -27.5 -70.5t-70.5 -27.5q-35 0 -58.5 23.5t-23.5 64.5zM590 1192q0 39 26.5 68.5t71.5 29.5h2 q35 0 57.5 -25.5t22.5 -62.5q0 -43 -26.5 -70.5t-69.5 -27.5q-35 0 -59.5 22.5t-24.5 65.5z" />
<glyph unicode="&#xec;" horiz-adv-x="440" d="M59 -16q51 309 78 526q43 330 43 377q20 8 74.5 20.5t69.5 12.5h2q16 0 16 -43q0 -21 -4 -54l-43 -311l-38 -274q-13 -100 -24 -164q-4 -45 -26 -60q-46 -26 -148 -30zM88 1323q-7 9 -7 18q0 11 11 21q56 39 99 39h8h2q23 -2 78 -109.5t81 -185.5q3 -12 4 -21 q0 -18 -14 -26q-31 -23 -51 -25q-109 174 -211 289z" />
<glyph unicode="&#xed;" horiz-adv-x="440" d="M59 -16q51 309 78 526q43 330 43 377q20 8 74.5 20.5t69.5 12.5h2q16 0 16 -43q0 -21 -4 -54l-43 -311l-38 -274q-13 -100 -24 -164q-4 -45 -26 -60q-46 -26 -148 -30zM221 1061q-8 6 -8 18q0 14 10 37q119 279 164 279q57 0 105 -47q7 -7 6 -16q0 -11 -13 -25 q-66 -74 -211 -279q-14 4 -53 33z" />
<glyph unicode="&#xee;" horiz-adv-x="440" d="M59 -16q51 309 78 526q43 330 43 377q20 8 74.5 20.5t69.5 12.5h2q16 0 16 -43q0 -21 -4 -54l-43 -311l-38 -274q-13 -100 -24 -164q-4 -45 -26 -60q-46 -26 -148 -30zM61 1065q145 213 189 283q16 27 41 32q45 8 59 9l160 -320q-55 -33 -82 -33q-20 0 -31 21 q-47 86 -96 188q-51 -90 -125 -190q-14 -18 -31 -19h-2q-45 0 -82 29z" />
<glyph unicode="&#xef;" horiz-adv-x="440" d="M35 1192q0 41 26.5 69.5t71.5 28.5h2q35 0 57.5 -25.5t22.5 -62.5q0 -43 -27.5 -70.5t-70.5 -27.5q-35 0 -58.5 23.5t-23.5 64.5zM59 -16q51 309 78 526q43 330 43 377q20 8 74.5 20.5t69.5 12.5h2q16 0 16 -43q0 -21 -4 -54l-43 -311l-38 -274q-13 -100 -24 -164 q-4 -45 -26 -60q-46 -26 -148 -30zM369 1192q0 39 26.5 68.5t71.5 29.5h2q35 0 57.5 -25.5t22.5 -62.5q0 -43 -26.5 -70.5t-69.5 -27.5q-35 0 -59.5 22.5t-24.5 65.5z" />
<glyph unicode="&#xf0;" horiz-adv-x="911" d="M51 336q0 221 132 402.5t343 181.5q82 0 133 -37q-6 45 -35.5 115.5t-60.5 109.5l-227 -125q-18 -12 -29.5 -8t-9.5 24q0 45 8 72l195 109q-41 43 -116 81.5t-126 53.5v4q20 33 49 53q18 18 47 19q39 -2 124 -45t143 -99l180 103q37 20 37 -11q1 -12 1 -23q0 -34 -10 -59 l-143 -86q158 -207 158 -518q-2 -172 -51.5 -321.5t-163 -253t-271.5 -103.5q-156 0 -231.5 100.5t-75.5 260.5zM223 322q0 -106 40 -171t120 -65h2q41 0 89 30.5t96 92t80 178.5t32 268q0 31 -4 84q-39 68 -141 68q-133 0 -223.5 -147.5t-90.5 -337.5z" />
<glyph unicode="&#xf1;" horiz-adv-x="1019" d="M53 -16q37 188 88 540q35 252 36 343q0 10 -1 18q16 8 73.5 21.5t74.5 13.5q6 0 8 -25q1 -8 0 -21q0 -25 -2 -67q-4 -63 -17 -158q-2 -14 -5 -41l-5 -43h4q88 162 204 258.5t234 96.5q153 0 154 -210q0 -53 -10 -120q-6 -45 -23.5 -145.5t-27.5 -168.5q-31 -203 -31 -272 q-23 -10 -76 -19.5t-78 -9.5q-6 0 -6 30t7.5 94.5t21.5 146.5q4 29 26.5 156.5t32.5 201.5q5 38 5 68q0 110 -70 110q-47 0 -107.5 -41t-124 -119.5t-121 -220t-88.5 -315.5q-10 -59 -41 -78q-37 -22 -135 -24zM344 1108q12 217 145 217h3q63 0 120 -72q43 -51 60 -51 q33 0 43 101q6 23 22 22q41 0 72 -31q-10 -215 -131 -215q-25 0 -48.5 13.5t-34.5 25.5l-42 45q-39 45 -64 45q-31 0 -51 -96q-4 -20 -14 -20q-37 0 -80 16z" />
<glyph unicode="&#xf2;" horiz-adv-x="944" d="M51 324q0 229 134 412.5t358 183.5h2q160 0 235.5 -96.5t75.5 -254.5q0 -252 -140.5 -423t-350.5 -171q-314 1 -314 349zM225 309q0 -115 44 -170t116 -55q117 0 207 142.5t90 367.5q0 90 -37 153.5t-121 63.5h-2q-121 0 -209 -150.5t-88 -351.5zM379 1323q-7 9 -7 18 q0 11 11 21q56 39 99 39h7h3q23 -2 78 -109.5t81 -185.5q3 -12 4 -21q0 -18 -14 -26q-31 -23 -51 -25q-109 174 -211 289z" />
<glyph unicode="&#xf3;" horiz-adv-x="944" d="M51 324q0 229 134 412.5t358 183.5h2q160 0 235.5 -96.5t75.5 -254.5q0 -252 -140.5 -423t-350.5 -171q-314 1 -314 349zM225 309q0 -115 44 -170t116 -55q117 0 207 142.5t90 367.5q0 90 -37 153.5t-121 63.5h-2q-121 0 -209 -150.5t-88 -351.5zM473 1061q-8 6 -8 18 q0 14 10 37q119 279 164 279q57 0 104 -47q7 -7 7 -16q0 -11 -13 -25q-66 -74 -211 -279q-14 4 -53 33z" />
<glyph unicode="&#xf4;" horiz-adv-x="944" d="M51 324q0 229 134 412.5t358 183.5h2q160 0 235.5 -96.5t75.5 -254.5q0 -252 -140.5 -423t-350.5 -171q-314 1 -314 349zM225 309q0 -115 44 -170t116 -55q117 0 207 142.5t90 367.5q0 90 -37 153.5t-121 63.5h-2q-121 0 -209 -150.5t-88 -351.5zM322 1065 q145 213 188 283q16 27 41 32q45 8 59 9l160 -320q-55 -33 -82 -33q-20 0 -31 21q-47 86 -96 188q-51 -90 -125 -190q-14 -18 -30 -19h-3q-44 0 -81 29z" />
<glyph unicode="&#xf5;" horiz-adv-x="944" d="M51 324q0 229 134 412.5t358 183.5h2q160 0 235.5 -96.5t75.5 -254.5q0 -252 -140.5 -423t-350.5 -171q-314 1 -314 349zM225 309q0 -115 44 -170t116 -55q117 0 207 142.5t90 367.5q0 90 -37 153.5t-121 63.5h-2q-121 0 -209 -150.5t-88 -351.5zM324 1108 q12 217 145 217h2q63 0 121 -72q43 -51 59 -51q33 0 43 101q6 23 23 22q41 0 71 -31q-10 -215 -131 -215q-25 0 -48 13.5t-35 25.5l-42 45q-39 45 -63 45q-31 0 -51 -96q-4 -20 -15 -20q-36 0 -79 16z" />
<glyph unicode="&#xf6;" horiz-adv-x="944" d="M51 324q0 229 134 412.5t358 183.5h2q160 0 235.5 -96.5t75.5 -254.5q0 -252 -140.5 -423t-350.5 -171q-314 1 -314 349zM225 309q0 -115 44 -170t116 -55q117 0 207 142.5t90 367.5q0 90 -37 153.5t-121 63.5h-2q-121 0 -209 -150.5t-88 -351.5zM303 1192 q0 41 26.5 69.5t71.5 28.5h2q35 0 57.5 -25.5t22.5 -62.5q0 -43 -27.5 -70.5t-70.5 -27.5q-35 0 -58.5 23.5t-23.5 64.5zM637 1192q0 39 27.5 68.5t70.5 29.5h2q35 0 57.5 -25.5t22.5 -62.5q0 -43 -27.5 -70.5t-68.5 -27.5q-35 0 -59.5 22.5t-24.5 65.5z" />
<glyph unicode="&#xf7;" horiz-adv-x="1175" d="M127 444q4 123 61 123h859q-2 -63 -16.5 -93t-53.5 -30h-850zM485 188q0 41 28 70t69 29h2q39 0 66.5 -29t27.5 -70t-28.5 -70.5t-67.5 -29.5t-68 29.5t-29 70.5zM489 823q0 41 28 71t67 30q43 0 70.5 -30t27.5 -71t-28.5 -69.5t-71.5 -28.5h-2q-35 0 -63 29.5t-28 68.5z " />
<glyph unicode="&#xf8;" horiz-adv-x="933" d="M43 -20l78 106q-70 94 -70 262q0 219 138.5 395.5t353.5 176.5q96 0 155 -41l47 69q22 35 41 35q9 0 17 -8q35 -35 33 -66l-64 -94q78 -92 78 -273q0 -241 -133 -403q-135 -164 -346 -164q-117 0 -183 48l-65 -93q-16 -21 -30 -21q-8 0 -15 7q-23 23 -35 64zM227 495 q-13 -63 -12 -127q0 -69 14 -141l392 547q-31 39 -99 39q-100 0 -184 -94t-111 -224zM276 133q33 -51 115 -51q102 0 182 94t104 227q10 58 10 118q0 78 -17 161z" />
<glyph unicode="&#xf9;" horiz-adv-x="1011" d="M106 309l50 291q29 186 39 285q16 8 71.5 21.5t75.5 13.5q16 0 16 -31q0 -15 -4 -39l-92 -563q-5 -35 -5 -63q0 -114 81 -113q45 0 100.5 34.5t115.5 108.5t115.5 215t84.5 328q8 51 16 69.5t27 28.5q65 25 121 25h16q-61 -244 -107 -650q-17 -164 -16 -248v-18 q-61 -29 -143 -29q-6 0 -9 34q-1 10 0 23q0 32 4 82q5 71 15 162l-4 3q-168 -303 -410 -304q-168 0 -168 213q-1 54 10 121zM395 1323q-7 9 -7 18q0 11 11 21q56 39 99 39h8h2q23 -2 78 -109.5t82 -185.5q3 -12 3 -21q0 -18 -14 -26q-31 -23 -51 -25q-109 174 -211 289z" />
<glyph unicode="&#xfa;" horiz-adv-x="1011" d="M106 309l50 291q29 186 39 285q16 8 71.5 21.5t75.5 13.5q16 0 16 -31q0 -15 -4 -39l-92 -563q-5 -35 -5 -63q0 -114 81 -113q45 0 100.5 34.5t115.5 108.5t115.5 215t84.5 328q8 51 16 69.5t27 28.5q65 25 121 25h16q-61 -244 -107 -650q-17 -164 -16 -248v-18 q-61 -29 -143 -29q-6 0 -9 34q-1 10 0 23q0 32 4 82q5 71 15 162l-4 3q-168 -303 -410 -304q-168 0 -168 213q-1 54 10 121zM528 1061q-8 6 -7 18q0 14 9 37q119 279 164 279q57 0 105 -47q7 -7 7 -16q0 -11 -13 -25q-66 -74 -211 -279q-15 4 -54 33z" />
<glyph unicode="&#xfb;" horiz-adv-x="1011" d="M106 309l50 291q29 186 39 285q16 8 71.5 21.5t75.5 13.5q16 0 16 -31q0 -15 -4 -39l-92 -563q-5 -35 -5 -63q0 -114 81 -113q45 0 100.5 34.5t115.5 108.5t115.5 215t84.5 328q8 51 16 69.5t27 28.5q65 25 121 25h16q-61 -244 -107 -650q-17 -164 -16 -248v-18 q-61 -29 -143 -29q-6 0 -9 34q-1 10 0 23q0 32 4 82q5 71 15 162l-4 3q-168 -303 -410 -304q-168 0 -168 213q-1 54 10 121zM360 1065q145 213 189 283q16 27 41 32q45 8 59 9l160 -320q-55 -33 -82 -33q-20 0 -31 21q-47 86 -96 188q-51 -90 -125 -190q-14 -18 -31 -19h-2 q-45 0 -82 29z" />
<glyph unicode="&#xfc;" horiz-adv-x="1011" d="M106 309l50 291q29 186 39 285q16 8 71.5 21.5t75.5 13.5q16 0 16 -31q0 -15 -4 -39l-92 -563q-5 -35 -5 -63q0 -114 81 -113q45 0 100.5 34.5t115.5 108.5t115.5 215t84.5 328q8 51 16 69.5t27 28.5q65 25 121 25h16q-61 -244 -107 -650q-17 -164 -16 -248v-18 q-61 -29 -143 -29q-6 0 -9 34q-1 10 0 23q0 32 4 82q5 71 15 162l-4 3q-168 -303 -410 -304q-168 0 -168 213q-1 54 10 121zM342 1192q0 41 26.5 69.5t71.5 28.5h2q35 0 57.5 -25.5t22.5 -62.5q0 -43 -27.5 -70.5t-70.5 -27.5q-35 0 -58.5 23.5t-23.5 64.5zM676 1192 q0 39 26.5 68.5t71.5 29.5h2q35 0 57.5 -25.5t22.5 -62.5q0 -43 -26.5 -70.5t-69.5 -27.5q-35 0 -59.5 22.5t-24.5 65.5z" />
<glyph unicode="&#xfd;" horiz-adv-x="851" d="M-92 -381q76 68 176 176.5t160 188.5q-29 57 -49 159q-27 135 -61 374t-44 368q70 35 139 35q20 0 25 -37q31 -328 78 -609q12 -84 33 -139q143 205 224 413t89 351q51 20 113 21q18 0 18 -54q0 -121 -78 -326.5t-239 -447.5q-111 -168 -254.5 -333t-212.5 -214 q-43 0 -80 25.5t-37 48.5zM424 1061q-8 6 -8 18q0 14 10 37q119 279 164 279q57 0 104 -47q7 -7 7 -16q0 -11 -13 -25q-66 -74 -211 -279q-14 4 -53 33z" />
<glyph unicode="&#xfe;" horiz-adv-x="1019" d="M-10 -444q102 565 229 1509q35 274 35 299q78 29 143 29q17 0 18 -39q0 -16 -3 -39l-105 -713h4q201 317 428 318q96 0 151.5 -79t55.5 -212q0 -274 -144.5 -464t-363.5 -190q-145 0 -211 76l-34 -221q-23 -139 -25 -156q-10 -72 -39 -92q-55 -22 -139 -26zM250 174 q70 -82 174 -82q158 0 255 153.5t97 375.5q0 76 -27.5 118.5t-76.5 42.5h-2q-104 0 -236.5 -155.5t-175.5 -399.5z" />
<glyph unicode="&#xff;" horiz-adv-x="851" d="M-92 -381q76 68 176 176.5t160 188.5q-29 57 -49 159q-27 135 -61 374t-44 368q70 35 139 35q20 0 25 -37q31 -328 78 -609q12 -84 33 -139q143 205 224 413t89 351q51 20 113 21q18 0 18 -54q0 -121 -78 -326.5t-239 -447.5q-111 -168 -254.5 -333t-212.5 -214 q-43 0 -80 25.5t-37 48.5zM233 1192q0 41 27 69.5t72 28.5h2q35 0 57.5 -25.5t22.5 -62.5q0 -43 -28 -70.5t-71 -27.5q-35 0 -58.5 23.5t-23.5 64.5zM567 1192q0 39 28 68.5t71 29.5h2q35 0 57.5 -25.5t22.5 -62.5q0 -43 -28 -70.5t-69 -27.5q-35 0 -59.5 22.5t-24.5 65.5z " />
<glyph unicode="&#x152;" horiz-adv-x="1720" d="M86 537q0 322 186.5 548t470.5 226q135 0 223.5 -53.5t129.5 -124.5l14 122q29 14 133 25h455q-2 -61 -47 -98q-31 -16 -154 -17h-240l-55 -450h430q-23 -74 -52.5 -94.5t-94.5 -20.5h-297l-53 -483q66 -14 254 -15q203 0 284 11l2 -4q-6 -33 -31.5 -66t-54.5 -45 q-43 -10 -237 -10q-262 0 -365 20l-20 33l12 104q-150 -176 -412 -176q-231 0 -356 154t-125 414zM266 543q0 -199 83 -331t259 -132h2q145 0 245.5 83t131.5 183q16 47 37 201l23 198q15 117 14 182q0 36 -4 56q-20 78 -96 146.5t-205 68.5q-215 0 -352.5 -192.5 t-137.5 -462.5z" />
<glyph unicode="&#x153;" horiz-adv-x="1427" d="M49 334q0 231 136.5 408.5t355.5 177.5q211 0 264 -207q57 84 150.5 145.5t199.5 61.5h2q96 0 153.5 -52.5t57.5 -134.5q0 -80 -42 -142.5t-101.5 -98t-139 -61t-141 -35t-119.5 -11.5q-2 -12 -2 -72q2 -100 47 -155.5t123 -55.5q166 0 301 150q25 -14 25 -57 q-4 -51 -29 -76q-133 -143 -340 -144q-94 0 -159.5 50.5t-88.5 136.5q-125 -186 -337 -187q-154 0 -235 91.5t-81 267.5zM223 328q0 -242 166 -242q111 0 202 135t91 344q0 96 -37 171t-127 75h-2q-123 0 -208 -148.5t-85 -334.5zM838 494q201 12 292 75.5t91 149.5 q0 43 -27 68.5t-74 25.5h-2q-90 0 -169.5 -92t-110.5 -227z" />
<glyph unicode="&#x178;" horiz-adv-x="1103" d="M127 1260v6q86 20 143 20q35 0 70 -78q29 -63 112 -230t126 -261q53 63 231 301.5t203 267.5q59 -2 110 -18q17 -7 18 -22q0 -16 -22 -42q-119 -137 -469 -596q-18 -27 -24 -71l-35 -283q-16 -141 -27 -254q-55 -12 -141 -12q-18 0 -23.5 6t-3.5 31l60 479q4 33 3 60 q0 18 -1 34q-8 45 -45 117q-174 352 -285 545zM420 1533q29 30 74 30h2q37 0 60.5 -28t23.5 -67q-2 -45 -30 -73.5t-71 -28.5q-39 0 -65 25q-25 23 -25 63q0 47 31 79zM771 1532q28 31 73 31h2q39 0 62 -27q22 -24 22 -59v-7q-2 -47 -30 -75.5t-71 -28.5q-37 0 -63 26 q-25 24 -25 62q0 45 30 78z" />
<glyph unicode="&#x2c6;" horiz-adv-x="819" d="M242 1065q145 213 188 283q16 27 41 32q45 8 59 9l160 -320q-55 -33 -82 -33q-20 0 -30 21q-47 86 -97 188q-51 -90 -125 -190q-14 -18 -30 -19h-2q-45 0 -82 29z" />
<glyph unicode="&#x2dc;" horiz-adv-x="819" d="M238 1108q12 217 145 217h2q63 0 121 -72q43 -51 59 -51q33 0 43 101q6 23 23 22q41 0 71 -31q-10 -215 -131 -215q-25 0 -48 13.5t-35 25.5l-42 45q-39 45 -63 45q-31 0 -51 -96q-4 -20 -15 -20q-36 0 -79 16z" />
<glyph unicode="&#x2013;" horiz-adv-x="1089" d="M72 434q2 23 14 76q18 47 55 47h844q-4 -41 -16 -72q-8 -31 -18.5 -41t-28.5 -10h-850z" />
<glyph unicode="&#x2014;" horiz-adv-x="1837" d="M72 434q4 47 16 80q14 43 55 43h1592q-4 -39 -13 -68q-8 -35 -19 -45t-32 -10h-1599z" />
<glyph unicode="&#x2018;" horiz-adv-x="358" d="M127 979q0 76 46 176t101 162q45 39 132 39l4 -4q-57 -84 -94 -197q-29 -92 -29 -167q0 -17 2 -34q-72 -43 -117 -43t-45 68z" />
<glyph unicode="&#x2019;" horiz-adv-x="358" d="M98 907q57 84 93 195q29 90 30 166q0 17 -2 35q68 43 119 43q43 0 43 -64q0 -78 -47 -179.5t-103 -162.5q-39 -39 -129 -39z" />
<glyph unicode="&#x201a;" horiz-adv-x="339" d="M-96 -205q70 84 111 195q34 89 34 166q0 19 -2 37q63 43 119 43q48 0 48 -75q0 -11 -1 -24q-4 -82 -55.5 -173t-114.5 -142q-41 -33 -119 -33h-18z" />
<glyph unicode="&#x201c;" horiz-adv-x="651" d="M127 983q0 75 45 172q47 100 104 162q41 39 132 39l4 -4q-57 -84 -94 -196q-29 -91 -29 -167q0 -18 2 -35q-72 -43 -117 -43q-23 0 -35 20.5t-12 51.5zM422 983q0 75 45 172q47 100 104 160q41 41 131 41l5 -4q-57 -84 -94 -196q-29 -91 -29 -167q0 -18 2 -35 q-72 -43 -117 -43q-47 0 -47 72z" />
<glyph unicode="&#x201d;" horiz-adv-x="655" d="M100 909q55 84 93 196q30 91 30 167q0 17 -2 33q61 43 117 43q43 0 43 -62q0 -86 -45 -183t-103 -161q-41 -39 -131 -39zM393 909q57 84 94 195q30 90 31 167q0 17 -2 34q68 43 117 43q45 0 45 -62q0 -84 -46 -183t-104 -161q-39 -39 -133 -39z" />
<glyph unicode="&#x201e;" horiz-adv-x="647" d="M-94 -205q68 80 110 193q35 91 35 168q0 18 -2 37q63 43 119 43q49 0 49 -84q0 -86 -52 -180.5t-120 -149.5q-39 -33 -119 -33h-18zM209 -205q70 80 113 193q35 91 34 168q0 18 -2 37q63 43 119 43q49 0 49 -82q0 -86 -52 -181.5t-120 -150.5q-42 -33 -121 -33h-18z" />
<glyph unicode="&#x2022;" horiz-adv-x="561" d="M86 449q0 94 53.5 153.5t145.5 59.5h2q74 0 119 -53.5t45 -127.5q0 -92 -54.5 -149.5t-142.5 -57.5q-72 0 -120 48.5t-48 126.5z" />
<glyph unicode="&#x2026;" horiz-adv-x="1529" d="M63 74q0 57 31 93t86 36h2q41 0 65.5 -31t24.5 -74q0 -53 -30.5 -87t-79.5 -34q-43 0 -71 26t-28 71zM573 74q0 57 31 93t86 36h2q41 0 65.5 -31t24.5 -74q0 -53 -31.5 -87t-80.5 -34q-43 0 -70 26t-27 71zM1083 76q0 57 31 92t86 35h2q41 0 65.5 -31t24.5 -76 q0 -53 -31.5 -86t-80.5 -33q-43 0 -70 26t-27 73z" />
<glyph unicode="&#x2039;" horiz-adv-x="811" d="M88 479q186 150 375 404q23 -8 43 -30t20 -41q0 -67 -264 -355q53 -72 121 -189.5t70 -161.5q2 -25 -25 -47t-51 -28q-104 215 -275 395q-14 22 -14 53z" />
<glyph unicode="&#x203a;" horiz-adv-x="811" d="M260 103q0 65 264 354q-51 68 -119.5 187.5t-70.5 162.5q-2 25 24.5 47.5t53.5 28.5q94 -207 272 -396q16 -27 14 -53q-190 -152 -372 -403q-20 8 -42 29q-24 24 -24 43z" />
<glyph unicode="&#x20ac;" d="M23 451q14 59 35.5 77.5t64.5 18.5h37q2 45 14 112h-92q18 61 35.5 79t58.5 18h19q53 203 188 340t330 137q78 0 139 -24.5t82 -57.5q-4 -35 -25.5 -58.5t-54.5 -7.5q-61 35 -135 35q-127 0 -223.5 -92t-143.5 -272h447q-16 -63 -38 -80t-71 -17h-360q-8 -63 -11 -112 h402q-16 -63 -39 -79.5t-76 -16.5h-287q20 -362 299 -363q109 0 207 53l4 -4q-4 -61 -51 -108q-66 -53 -211 -54q-383 0 -409 476h-135z" />
<glyph unicode="&#x2122;" horiz-adv-x="681" d="M119 1282q8 -2 67 -2h181q0 -35 -27 -49h-78v-162q0 -16 1 -33.5t1 -19.5l-53 -4q-12 0 -12 8v211h-88q-11 0 -11 9q0 23 19 42zM367 1016l49 239l-6 19q25 8 67 8q4 0 25 -45l55 -123q35 82 70 156v4q25 8 63 8q6 0 6 -14l25 -156q8 -45 18 -96q-29 -8 -57 -8 q-12 0 -12 14q0 10 -3 34.5t-5 37.5l-17 116l-76 -190q-23 -4 -41 -4q-51 117 -73 184q-2 -16 -13.5 -87t-15.5 -93q-2 -12 -8 -12q-26 0 -51 8z" />
<glyph unicode="&#xe000;" horiz-adv-x="940" d="M0 940h940v-940h-940v940z" />
<glyph unicode="&#xfb01;" horiz-adv-x="954" d="M-275 -339q0 34 15 46q61 -31 119 -31q104 0 152 89.5t85 336.5q29 193 86 662h-147q4 35 21.5 71.5t41.5 38.5h99q16 133 51 231.5t76 154t94 89t100 44t102.5 10.5t115 -22.5t75.5 -51.5q4 -29 -18.5 -61.5t-51.5 -16.5q-63 35 -118 35q-111 0 -178.5 -88t-94.5 -324 h350q33 2 85.5 16.5t60.5 14.5t12 -7t4 -25.5t-3 -51.5t-11 -84q-74 -520 -96 -661q-8 -49 -27 -64q-35 -31 -147 -35q94 606 116 787h-358q-53 -426 -94 -713q-41 -274 -135.5 -384.5t-235.5 -110.5q-78 0 -119 36q-27 21 -27 69z" />
<glyph unicode="&#xfb02;" horiz-adv-x="964" d="M-274 -346q0 41 14 55q55 -33 119 -33q102 0 151 92.5t86 337.5q39 254 88 658h-149q4 35 22.5 71.5t42.5 38.5h99q66 528 432 529q102 0 168 -51l41 20q29 14 46 21.5t29 7.5q17 0 18 -38q0 -20 -5 -52q-164 -1128 -174 -1209q-12 -76 -33 -92q-41 -29 -146 -33 q45 258 117 787h-354l-98 -719q-41 -274 -136.5 -381.5t-234.5 -107.5q-82 0 -119 36q-24 21 -24 62zM352 874h355q43 260 55 373q-53 43 -131 43q-119 0 -184.5 -99.5t-94.5 -316.5z" />
<glyph unicode="&#xfb03;" horiz-adv-x="1468" d="M-269 -336q3 33 17 43q49 -31 119 -31q111 0 153.5 104.5t85.5 397.5q53 367 78 586h-149q4 35 21.5 69.5t41.5 40.5h99q63 487 432 488q143 0 223 -78q92 119 274 119q61 0 119 -20.5t76 -43.5q2 -27 -18.5 -60.5t-47.5 -21.5q-84 31 -125 31q-106 0 -173.5 -85 t-96.5 -329h348q33 2 86.5 16.5t61.5 14.5t12 -7t4 -25.5t-3 -51.5t-11 -84q-74 -520 -96 -661q-8 -49 -27 -64q-35 -31 -148 -35q94 606 117 787h-358q-37 -313 -82 -631q-41 -301 -149.5 -418.5t-288.5 -117.5q-131 0 -215 69q-86 -111 -224 -110q-113 0 -145 53 q-12 19 -12 44q0 5 1 11zM166 -240q61 -51 162 -51q135 0 196.5 112.5t96.5 383.5q70 547 71 559h-356q-37 -313 -90 -688q-35 -228 -80 -316zM352 874l353 1q27 201 90 321q-57 57 -166 57q-238 0 -277 -379z" />
<glyph unicode="&#xfb04;" horiz-adv-x="1478" d="M-252 -293q49 -31 119 -31q111 0 153.5 104.5t85.5 399.5q61 424 78 584h-147q2 33 20.5 68.5t42.5 41.5h97q63 487 432 488q139 0 225 -80q102 121 281 121q111 0 176 -51q14 6 42 19l46 22q18 8 28 8q19 0 20 -40q0 -20 -5 -50l-53 -361l-75 -510l-48 -338 q-12 -78 -35 -92q-41 -29 -144 -33q109 713 119 787h-362q-39 -336 -82 -631q-41 -303 -148.5 -419.5t-287.5 -116.5q-129 0 -215 71q-84 -113 -226 -112q-113 0 -141 53q-13 18 -13 46q0 40 17 52zM166 -240q63 -53 160 -53q135 0 198.5 115t96.5 383q70 547 71 559h-356 q-41 -344 -90 -690q-35 -230 -80 -314zM352 874h353q29 207 90 320q-55 59 -166 59q-236 0 -277 -379zM862 874h361q41 262 55 371q-59 45 -143 45q-119 0 -181.5 -97.5t-91.5 -318.5z" />
</font>
</defs>
</svg>
